Fast Download Mirrors

2001: A Space Odyssey (1968) • Movie | REPACK.UHD.BluRay.2160p.DTS-HD.MA.5.1.HEVC.REMUX-FraMeSToR [69.8 GB]

2001: A Space Odyssey Adventure, Sci-Fi | June 24, 1970 (United States) Summary: The Monoliths push humanity to reach for the stars; after their discovery in Africa generations ago, the mysterious objects lead mankind on an awesome journey to Jupiter, with the help of H.... Read all
Countries: United Kingdom, United StatesLanguages: English, Russian, French

Humanity finds a mysterious object buried beneath the lunar surface and sets off to find its origins with the help of HAL 9000, the world’s most advanced super computer.

Mirrors: GDrive [Gadrive, GDToT, Index, Sharer], MultiUp
Format: MKV
Credits: FraMeSToR

Download

General
Unique ID                                : 198803504964279612274257218027177115298 (0x9590298E3219B01BF8EF04004A3FFEA2)
Complete name                            : 2001.A.Space.Odyssey.1968.REPACK.UHD.BluRay.2160p.DTS-HD.MA.5.1.HEVC.REMUX-FraMeSToR.mkv
Format                                   : Matroska
Format version                           : Version 4
File size                                : 69.8 GiB
Duration                                 : 2 h 28 min
Overall bit rate mode                    : Variable
Overall bit rate                         : 67.1 Mb/s
Movie name                               : 2001: A Space Odyssey (1968) 4K
Encoded date                             : UTC 2019-04-03 10:22:37
Writing application                      : mkvmerge v31.0.0 ('Dolores In A Shoestand') 64-bit
Writing library                          : libebml v1.3.6 + libmatroska v1.4.9

Video
ID                                       : 1
Format                                   : HEVC
Format/Info                              : High Efficiency Video Coding
Format profile                           : Main 10@L5.1@High
HDR format                               : SMPTE ST 2086, HDR10 compatible
Codec ID                                 : V_MPEGH/ISO/HEVC
Duration                                 : 2 h 28 min
Bit rate                                 : 62.2 Mb/s
Width                                    : 3 840 pixels
Height                                   : 2 160 pixels
Display aspect ratio                     : 16:9
Frame rate mode                          : Constant
Frame rate                               : 23.976 (24000/1001) FPS
Color space                              : YUV
Chroma subsampling                       : 4:2:0 (Type 2)
Bit depth                                : 10 bits
Bits/(Pixel*Frame)                       : 0.313
Stream size                              : 64.7 GiB (93%)
Default                                  : Yes
Forced                                   : No
Color range                              : Limited
Color primaries                          : BT.2020
Transfer characteristics                 : PQ
Matrix coefficients                      : BT.2020 non-constant
Mastering display color primaries        : BT.2020
Mastering display luminance              : min: 0.0050 cd/m2, max: 1000 cd/m2
Maximum Content Light Level              : 992 cd/m2
Maximum Frame-Average Light Level        : 282 cd/m2

Audio #1
ID                                       : 2
Format                                   : DTS XLL
Format/Info                              : Digital Theater Systems
Commercial name                          : DTS-HD Master Audio
Codec ID                                 : A_DTS
Duration                                 : 2 h 28 min
Bit rate mode                            : Variable
Bit rate                                 : 2 197 kb/s
Channel(s)                               : 6 channels
Channel layout                           : C L R Ls Rs LFE
Sampling rate                            : 48.0 kHz
Frame rate                               : 93.750 FPS (512 SPF)
Bit depth                                : 16 bits
Compression mode                         : Lossless
Stream size                              : 2.28 GiB (3%)
Title                                    : DTS-HD MA 5.1 (Remixed)
Language                                 : English
Default                                  : Yes
Forced                                   : No

Audio #2
ID                                       : 3
Format                                   : DTS XLL
Format/Info                              : Digital Theater Systems
Commercial name                          : DTS-HD Master Audio
Codec ID                                 : A_DTS
Duration                                 : 2 h 28 min
Bit rate mode                            : Variable
Bit rate                                 : 2 170 kb/s
Channel(s)                               : 6 channels
Channel layout                           : C L R Ls Rs LFE
Sampling rate                            : 48.0 kHz
Frame rate                               : 93.750 FPS (512 SPF)
Bit depth                                : 16 bits
Compression mode                         : Lossless
Stream size                              : 2.26 GiB (3%)
Title                                    : DTS-HD MA 5.1 (Original)
Language                                 : English
Default                                  : No
Forced                                   : No

Audio #3
ID                                       : 4
Format                                   : AC-3
Format/Info                              : Audio Coding 3
Commercial name                          : Dolby Digital
Format settings                          : Dolby Surround
Codec ID                                 : A_AC3
Duration                                 : 2 h 28 min
Bit rate mode                            : Constant
Bit rate                                 : 192 kb/s
Channel(s)                               : 2 channels
Channel layout                           : L R
Sampling rate                            : 48.0 kHz
Frame rate                               : 31.250 FPS (1536 SPF)
Compression mode                         : Lossy
Stream size                              : 204 MiB (0%)
Title                                    : Commentary by stars Keir Dullea and Gary Lockwood
Language                                 : English
Service kind                             : Complete Main
Default                                  : No
Forced                                   : No

Text #1
ID                                       : 5
Format                                   : PGS
Codec ID                                 : S_HDMV/PGS
Codec ID/Info                            : Picture based subtitle format used on BDs/HD-DVDs
Duration                                 : 2 h 17 min
Bit rate                                 : 15.1 kb/s
Count of elements                        : 1334
Stream size                              : 14.9 MiB (0%)
Title                                    : English (SDH)
Language                                 : English
Default                                  : No
Forced                                   : No

Text #2
ID                                       : 6
Format                                   : PGS
Codec ID                                 : S_HDMV/PGS
Codec ID/Info                            : Picture based subtitle format used on BDs/HD-DVDs
Duration                                 : 2 h 20 min
Bit rate                                 : 7 350 b/s
Count of elements                        : 1280
Stream size                              : 7.38 MiB (0%)
Title                                    : Arabic
Language                                 : Arabic
Default                                  : No
Forced                                   : No

Text #3
ID                                       : 7
Format                                   : PGS
Codec ID                                 : S_HDMV/PGS
Codec ID/Info                            : Picture based subtitle format used on BDs/HD-DVDs
Duration                                 : 2 h 20 min
Bit rate                                 : 13.0 kb/s
Count of elements                        : 1326
Stream size                              : 13.0 MiB (0%)
Title                                    : Chinese (Simplified)
Language                                 : Chinese
Default                                  : No
Forced                                   : No

Text #4
ID                                       : 8
Format                                   : PGS
Codec ID                                 : S_HDMV/PGS
Codec ID/Info                            : Picture based subtitle format used on BDs/HD-DVDs
Duration                                 : 2 h 20 min
Bit rate                                 : 11.6 kb/s
Count of elements                        : 1350
Stream size                              : 11.6 MiB (0%)
Title                                    : Chinese (Traditional)
Language                                 : Chinese
Default                                  : No
Forced                                   : No

Text #5
ID                                       : 9
Format                                   : PGS
Codec ID                                 : S_HDMV/PGS
Codec ID/Info                            : Picture based subtitle format used on BDs/HD-DVDs
Duration                                 : 2 h 20 min
Bit rate                                 : 13.0 kb/s
Count of elements                        : 1288
Stream size                              : 13.1 MiB (0%)
Title                                    : Croatian
Language                                 : Croatian
Default                                  : No
Forced                                   : No

Text #6
ID                                       : 10
Format                                   : PGS
Codec ID                                 : S_HDMV/PGS
Codec ID/Info                            : Picture based subtitle format used on BDs/HD-DVDs
Duration                                 : 2 h 20 min
Bit rate                                 : 11.9 kb/s
Count of elements                        : 1324
Stream size                              : 11.9 MiB (0%)
Title                                    : Czech
Language                                 : Czech
Default                                  : No
Forced                                   : No

Text #7
ID                                       : 11
Format                                   : PGS
Codec ID                                 : S_HDMV/PGS
Codec ID/Info                            : Picture based subtitle format used on BDs/HD-DVDs
Duration                                 : 2 h 20 min
Bit rate                                 : 10.1 kb/s
Count of elements                        : 774
Stream size                              : 10.1 MiB (0%)
Title                                    : Danish
Language                                 : Danish
Default                                  : No
Forced                                   : No

Text #8
ID                                       : 12
Format                                   : PGS
Codec ID                                 : S_HDMV/PGS
Codec ID/Info                            : Picture based subtitle format used on BDs/HD-DVDs
Duration                                 : 2 h 19 min
Bit rate                                 : 11.0 kb/s
Count of elements                        : 900
Stream size                              : 10.9 MiB (0%)
Title                                    : Dutch
Language                                 : Dutch
Default                                  : No
Forced                                   : No

Text #9
ID                                       : 13
Format                                   : PGS
Codec ID                                 : S_HDMV/PGS
Codec ID/Info                            : Picture based subtitle format used on BDs/HD-DVDs
Duration                                 : 2 h 20 min
Bit rate                                 : 9 768 b/s
Count of elements                        : 750
Stream size                              : 9.80 MiB (0%)
Title                                    : Finnish
Language                                 : Finnish
Default                                  : No
Forced                                   : No

Text #10
ID                                       : 14
Format                                   : PGS
Codec ID                                 : S_HDMV/PGS
Codec ID/Info                            : Picture based subtitle format used on BDs/HD-DVDs
Duration                                 : 2 h 20 min
Bit rate                                 : 12.0 kb/s
Count of elements                        : 1264
Stream size                              : 12.0 MiB (0%)
Title                                    : French
Language                                 : French
Default                                  : No
Forced                                   : No

Text #11
ID                                       : 15
Format                                   : PGS
Codec ID                                 : S_HDMV/PGS
Codec ID/Info                            : Picture based subtitle format used on BDs/HD-DVDs
Duration                                 : 2 h 20 min
Bit rate                                 : 16.3 kb/s
Count of elements                        : 1316
Stream size                              : 16.4 MiB (0%)
Title                                    : German (SHD)
Language                                 : German
Default                                  : No
Forced                                   : No

Text #12
ID                                       : 16
Format                                   : PGS
Codec ID                                 : S_HDMV/PGS
Codec ID/Info                            : Picture based subtitle format used on BDs/HD-DVDs
Duration                                 : 2 h 20 min
Bit rate                                 : 11.8 kb/s
Count of elements                        : 1192
Stream size                              : 11.8 MiB (0%)
Title                                    : Greek
Language                                 : Greek
Default                                  : No
Forced                                   : No

Text #13
ID                                       : 17
Format                                   : PGS
Codec ID                                 : S_HDMV/PGS
Codec ID/Info                            : Picture based subtitle format used on BDs/HD-DVDs
Duration                                 : 2 h 20 min
Bit rate                                 : 8 296 b/s
Count of elements                        : 1246
Stream size                              : 8.32 MiB (0%)
Title                                    : Hebrew
Language                                 : Hebrew
Default                                  : No
Forced                                   : No

Text #14
ID                                       : 18
Format                                   : PGS
Codec ID                                 : S_HDMV/PGS
Codec ID/Info                            : Picture based subtitle format used on BDs/HD-DVDs
Duration                                 : 2 h 20 min
Bit rate                                 : 13.0 kb/s
Count of elements                        : 1326
Stream size                              : 13.0 MiB (0%)
Title                                    : Hungarian
Language                                 : Hungarian
Default                                  : No
Forced                                   : No

Text #15
ID                                       : 19
Format                                   : PGS
Codec ID                                 : S_HDMV/PGS
Codec ID/Info                            : Picture based subtitle format used on BDs/HD-DVDs
Duration                                 : 2 h 20 min
Bit rate                                 : 15.1 kb/s
Count of elements                        : 1342
Stream size                              : 15.2 MiB (0%)
Title                                    : Italian (SHD)
Language                                 : Italian
Default                                  : No
Forced                                   : No

Text #16
ID                                       : 20
Format                                   : PGS
Codec ID                                 : S_HDMV/PGS
Codec ID/Info                            : Picture based subtitle format used on BDs/HD-DVDs
Duration                                 : 1 h 52 min
Bit rate                                 : 12.4 kb/s
Count of elements                        : 1407
Stream size                              : 9.99 MiB (0%)
Title                                    : Japanese
Language                                 : Japanese
Default                                  : No
Forced                                   : No

Text #17
ID                                       : 21
Format                                   : PGS
Codec ID                                 : S_HDMV/PGS
Codec ID/Info                            : Picture based subtitle format used on BDs/HD-DVDs
Duration                                 : 2 h 20 min
Bit rate                                 : 10.3 kb/s
Count of elements                        : 1328
Stream size                              : 10.3 MiB (0%)
Title                                    : Korean
Language                                 : Korean
Default                                  : No
Forced                                   : No

Text #18
ID                                       : 22
Format                                   : PGS
Codec ID                                 : S_HDMV/PGS
Codec ID/Info                            : Picture based subtitle format used on BDs/HD-DVDs
Duration                                 : 2 h 20 min
Bit rate                                 : 9 972 b/s
Count of elements                        : 884
Stream size                              : 10.0 MiB (0%)
Title                                    : Norwegian
Language                                 : Norwegian
Default                                  : No
Forced                                   : No

Text #19
ID                                       : 23
Format                                   : PGS
Codec ID                                 : S_HDMV/PGS
Codec ID/Info                            : Picture based subtitle format used on BDs/HD-DVDs
Duration                                 : 2 h 20 min
Bit rate                                 : 10.8 kb/s
Count of elements                        : 1282
Stream size                              : 10.8 MiB (0%)
Title                                    : Polish
Language                                 : Polish
Default                                  : No
Forced                                   : No

Text #20
ID                                       : 24
Format                                   : PGS
Codec ID                                 : S_HDMV/PGS
Codec ID/Info                            : Picture based subtitle format used on BDs/HD-DVDs
Duration                                 : 2 h 20 min
Bit rate                                 : 13.5 kb/s
Count of elements                        : 1310
Stream size                              : 13.5 MiB (0%)
Title                                    : Portuguese (Brazilian)
Language                                 : Portuguese
Default                                  : No
Forced                                   : No

Text #21
ID                                       : 25
Format                                   : PGS
Codec ID                                 : S_HDMV/PGS
Codec ID/Info                            : Picture based subtitle format used on BDs/HD-DVDs
Duration                                 : 2 h 20 min
Bit rate                                 : 14.6 kb/s
Count of elements                        : 1292
Stream size                              : 14.6 MiB (0%)
Title                                    : Portuguese (Iberian)
Language                                 : Portuguese
Default                                  : No
Forced                                   : No

Text #22
ID                                       : 26
Format                                   : PGS
Codec ID                                 : S_HDMV/PGS
Codec ID/Info                            : Picture based subtitle format used on BDs/HD-DVDs
Duration                                 : 2 h 20 min
Bit rate                                 : 11.4 kb/s
Count of elements                        : 1278
Stream size                              : 11.4 MiB (0%)
Title                                    : Romanian
Language                                 : Romanian
Default                                  : No
Forced                                   : No

Text #23
ID                                       : 27
Format                                   : PGS
Codec ID                                 : S_HDMV/PGS
Codec ID/Info                            : Picture based subtitle format used on BDs/HD-DVDs
Duration                                 : 2 h 20 min
Bit rate                                 : 14.5 kb/s
Count of elements                        : 1304
Stream size                              : 14.5 MiB (0%)
Title                                    : Russian
Language                                 : Russian
Default                                  : No
Forced                                   : No

Text #24
ID                                       : 28
Format                                   : PGS
Codec ID                                 : S_HDMV/PGS
Codec ID/Info                            : Picture based subtitle format used on BDs/HD-DVDs
Duration                                 : 2 h 20 min
Bit rate                                 : 13.4 kb/s
Count of elements                        : 1288
Stream size                              : 13.4 MiB (0%)
Title                                    : Spanish (Castilian)
Language                                 : Spanish
Default                                  : No
Forced                                   : No

Text #25
ID                                       : 29
Format                                   : PGS
Codec ID                                 : S_HDMV/PGS
Codec ID/Info                            : Picture based subtitle format used on BDs/HD-DVDs
Duration                                 : 2 h 20 min
Bit rate                                 : 12.1 kb/s
Count of elements                        : 1272
Stream size                              : 12.1 MiB (0%)
Title                                    : Spanish (Latin American)
Language                                 : Spanish
Default                                  : No
Forced                                   : No

Text #26
ID                                       : 30
Format                                   : PGS
Codec ID                                 : S_HDMV/PGS
Codec ID/Info                            : Picture based subtitle format used on BDs/HD-DVDs
Duration                                 : 2 h 20 min
Bit rate                                 : 9 079 b/s
Count of elements                        : 760
Stream size                              : 9.11 MiB (0%)
Title                                    : Swedish
Language                                 : Swedish
Default                                  : No
Forced                                   : No

Text #27
ID                                       : 31
Format                                   : PGS
Codec ID                                 : S_HDMV/PGS
Codec ID/Info                            : Picture based subtitle format used on BDs/HD-DVDs
Duration                                 : 2 h 19 min
Bit rate                                 : 13.4 kb/s
Count of elements                        : 1328
Stream size                              : 13.4 MiB (0%)
Title                                    : Thai
Language                                 : Thai
Default                                  : No
Forced                                   : No

Text #28
ID                                       : 32
Format                                   : PGS
Codec ID                                 : S_HDMV/PGS
Codec ID/Info                            : Picture based subtitle format used on BDs/HD-DVDs
Duration                                 : 2 h 19 min
Bit rate                                 : 13.2 kb/s
Count of elements                        : 1286
Stream size                              : 13.2 MiB (0%)
Title                                    : Turkish
Language                                 : Turkish
Default                                  : No
Forced                                   : No

Text #29
ID                                       : 33
Format                                   : PGS
Codec ID                                 : S_HDMV/PGS
Codec ID/Info                            : Picture based subtitle format used on BDs/HD-DVDs
Duration                                 : 2 h 24 min
Bit rate                                 : 35.2 kb/s
Count of elements                        : 3294
Stream size                              : 36.3 MiB (0%)
Title                                    : Chinese (Simplified) (Commentary)
Language                                 : Chinese
Default                                  : No
Forced                                   : No

Text #30
ID                                       : 34
Format                                   : PGS
Codec ID                                 : S_HDMV/PGS
Codec ID/Info                            : Picture based subtitle format used on BDs/HD-DVDs
Duration                                 : 2 h 24 min
Bit rate                                 : 33.5 kb/s
Count of elements                        : 3100
Stream size                              : 34.6 MiB (0%)
Title                                    : Japanese (Commentary)
Language                                 : Japanese
Default                                  : No
Forced                                   : No

Menu
00:00:00.000                             : en:Overture
00:02:55.175                             : en:Main Title
00:04:37.110                             : en:The Dawn of Man
00:11:37.864                             : en:Apparition and Revelation
00:16:55.890                             : en:The Fittest
00:19:50.940                             : en:To the Moon
00:25:27.359                             : en:Voice Print Identification
00:27:36.071                             : en:Squirt
00:29:27.432                             : en:Great Big Mystery
00:33:44.773                             : en:Off to Clavius
00:41:06.631                             : en:Purpose of the Visit
00:45:35.399                             : en:Deliberately Buried
00:50:54.551                             : en:The Monolith
00:54:39.943                             : en:Jupiter Mission
00:58:31.633                             : en:The World Tonight
01:03:53.955                             : en:Frank's Parents
01:06:03.209                             : en:Sketches and Suspicions
01:12:08.574                             : en:Removing the Ae35
01:18:49.767                             : en:Human Error?
01:22:59.433                             : en:Bad Feeling
01:27:00.132                             : en:Intermission
01:27:47.262                             : en:Entr'acte
01:30:05.734                             : en:Cut Adrift
01:32:48.772                             : en:Rescue Mission
01:38:33.491                             : en:Terminated
01:40:44.997                             : en:Open the Pod Bay Doors
01:45:33.452                             : en:Emergency Airlock
01:49:39.448                             : en:My Mind Is Going
01:55:17.577                             : en:Prerecorded Briefing
01:57:04.017                             : en:Jupiter...
02:01:26.112                             : en:...and Beyond the Infinite
02:11:31.300                             : en:Future Selves
02:17:55.517                             : en:Star Child
02:20:31.423                             : en:End Credits & Exit Music

Readme/Password

Password & My Message