Fast Download Mirrors

A Christmas Carol (1938) • Movie | 1080p.BluRay.REMUX.AVC.FLAC.1.0-Flights [12.3GB]

A Christmas Carol (1938)
A Christmas Carol Drama, Family, Fantasy | December 16, 1938 (United States) Summary: An elderly miser learns the error of his ways on Christmas Eve.
Countries: United StatesLanguages: English

Classic Charles Dickens holiday tale of Ebenezer Scrooge, the miser’s miser who has a huge change of heart after spirits whisk him into the past, present, and future.

Mirrors: Gdrive[Sharer.pw, Gadrive]
Format: MKV
Credits: FlightReacts

Download

General
Unique ID                                : 78941280276591698889936456965858621032 (0x3B63899D17BF5D0AB51CE72036F57668)
Complete name                            : A.Christmas.Carol.1938.1080p.BluRay.REMUX.AVC.FLAC.1.0-Flights.mkv
Format                                   : Matroska
Format version                           : Version 4
File size                                : 12.4 GiB
Duration                                 : 1 h 9 min
Overall bit rate mode                    : Variable
Overall bit rate                         : 25.6 Mb/s
Movie name                               : A.Christmas.Carol.1938.1080p.BluRay.REMUX.AVC.FLAC.1.0-Flights
Encoded date                             : UTC 2021-11-29 19:48:41
Writing application                      : mkvmerge v63.0.0 ('Everything') 64-bit
Writing library                          : libebml v1.4.2 + libmatroska v1.6.4

Video
ID                                       : 1
Format                                   : AVC
Format/Info                              : Advanced Video Codec
Format profile                           : High@L4.1
Format settings                          : CABAC / 2 Ref Frames
Format settings, CABAC                   : Yes
Format settings, Reference frames        : 2 frames
Format settings, GOP                     : M=1, N=10
Codec ID                                 : V_MPEG4/ISO/AVC
Duration                                 : 1 h 9 min
Bit rate mode                            : Variable
Bit rate                                 : 24.9 Mb/s
Width                                    : 1 920 pixels
Height                                   : 1 080 pixels
Display aspect ratio                     : 16:9
Frame rate mode                          : Constant
Frame rate                               : 23.976 (24000/1001) FPS
Color space                              : YUV
Chroma subsampling                       : 4:2:0
Bit depth                                : 8 bits
Scan type                                : Progressive
Bits/(Pixel*Frame)                       : 0.501
Stream size                              : 12.1 GiB (97%)
Language                                 : English
Default                                  : Yes
Forced                                   : No

Audio
ID                                       : 2
Format                                   : FLAC
Format/Info                              : Free Lossless Audio Codec
Codec ID                                 : A_FLAC
Duration                                 : 1 h 9 min
Bit rate mode                            : Variable
Bit rate                                 : 589 kb/s
Channel(s)                               : 1 channel
Channel layout                           : C
Sampling rate                            : 48.0 kHz
Frame rate                               : 11.719 FPS (4096 SPF)
Bit depth                                : 24 bits
Compression mode                         : Lossless
Stream size                              : 292 MiB (2%)
Writing library                          : libFLAC 1.2.1 (UTC 2007-09-17)
Language                                 : English
Default                                  : Yes
Forced                                   : No

Text #1
ID                                       : 3
Format                                   : PGS
Muxing mode                              : zlib
Codec ID                                 : S_HDMV/PGS
Codec ID/Info                            : Picture based subtitle format used on BDs/HD-DVDs
Duration                                 : 1 h 7 min
Bit rate                                 : 40.3 kb/s
Count of elements                        : 2042
Stream size                              : 19.4 MiB (0%)
Title                                    : English SDH
Language                                 : English
Default                                  : No
Forced                                   : No

Text #2
ID                                       : 4
Format                                   : PGS
Muxing mode                              : zlib
Codec ID                                 : S_HDMV/PGS
Codec ID/Info                            : Picture based subtitle format used on BDs/HD-DVDs
Duration                                 : 1 h 8 min
Bit rate                                 : 34.2 kb/s
Count of elements                        : 1792
Stream size                              : 16.8 MiB (0%)
Title                                    : French
Language                                 : French
Default                                  : No
Forced                                   : No

Text #3
ID                                       : 5
Format                                   : PGS
Muxing mode                              : zlib
Codec ID                                 : S_HDMV/PGS
Codec ID/Info                            : Picture based subtitle format used on BDs/HD-DVDs
Duration                                 : 1 h 8 min
Bit rate                                 : 32.4 kb/s
Count of elements                        : 1792
Stream size                              : 16.0 MiB (0%)
Title                                    : Latin American
Language                                 : Spanish
Default                                  : No
Forced                                   : No

Menu
00:00:00.000                             : en: Chapter 1
00:01:12.281                             : en:Chapter 2
00:04:22.137                             : en:Chapter 3
00:08:45.108                             : en:Chapter 4
00:12:48.726                             : en:Chapter 5
00:15:23.881                             : en:Chapter 6
00:17:51.362                             : en:Chapter 7
00:21:21.197                             : en:Chapter 8
00:27:30.774                             : en:Chapter 9
00:31:11.244                             : en:Chapter 10
00:36:55.964                             : en:Chapter 11
00:42:42.059                             : en:Chapter 12
00:44:46.976                             : en:Chapter 13
00:52:24.183                             : en:Chapter 14
00:54:21.008                             : en:Chapter 15
01:01:34.858                             : en:Chapter 16
01:06:00.999                             : en:Chapter 17
01:08:42.243                             : en:Chapter 18

Readme/Password

Password & My Message