Fast Download Mirrors

Adele – 30 (2021) • Music | [24 Bit] FLAC + Mp3 320kbps – PMEDIA [639MB + 133MB]

Adele - 30 (2021)

30 is the fourth studio album by English singer-songwriter Adele, released on 19 November 2021 by Melted Stone and Columbia Records. Inspired by her divorce from ex-husband Simon Konecki, Adele tackles the separation on the album, whilst discussing her motherhood and the scrutiny of fame.

Artist : Adele
Album : 30
Label : Columbia
Genre : Pop
Playtime : 58:14 min
Rls date : 2021-11-19
Store date : 2021-11-19
Credits: PMEDIA
Mirrors: MirrorAce, MultiUp, Gdrive[Sharer], ZippyShare, KrakenFiles

Track List:

  • 1. Strangers By Nature 3:02
  • 2. Easy On Me 3:44
  • 3. My Little Love 6:29
  • 4. Cry Your Heart Out 4:15
  • 5. Oh My God 3:45
  • 6. Can I Get It 3:30
  • 7. I Drink Wine 6:16
  • 8. All Night Parking (With Erroll Garner) 2:41 (Interlude)
  • 9. Woman Like Me 5:00
  • 10. Hold On 6:06
  • 11. To Be Loved 6:43
  • 12. Love Is A Game 6:43

Download

General
Complete name                            : 01. Strangers By Nature.flac
Format                                   : FLAC
Format/Info                              : Free Lossless Audio Codec
File size                                : 31.2 MiB
Duration                                 : 3 min 2 s
Overall bit rate mode                    : Variable
Overall bit rate                         : 1 436 kb/s
Album                                    : 30
Album/Performer                          : Adele
Part                                     : 1
Part/Total                               : 1
Track name                               : Strangers By Nature
Track name/Position                      : 1
Track name/Total                         : 12
Performer                                : Adele
Conductor                                : PMEDIA
Producer                                 : PMEDIA
Encoded by                               : PMEDIA
Label                                    : PMEDIA
Recorded date                            : 2021
ISRC                                     : USSM12105969
Copyright                                : PMEDIA
Comment                                  : PMEDIA
COMPILATION                              : PMEDIA
PUBLISHER                                : PMEDIA
RELEASECOUNTRY                           : PMEDIA
WORK                                     : PMEDIA
WWWPUBLISHER                             : PMEDIA
UPLOADER                                 : PMEDIA
CREDITS                                  : PMEDIA
PROVIDER                                 : PMEDIA

Audio
Format                                   : FLAC
Format/Info                              : Free Lossless Audio Codec
Duration                                 : 3 min 2 s
Bit rate mode                            : Variable
Bit rate                                 : 1 436 kb/s
Channel(s)                               : 2 channels
Channel layout                           : L R
Sampling rate                            : 44.1 kHz
Bit depth                                : 24 bits
Compression mode                         : Lossless
Stream size                              : 31.2 MiB (100%)
Writing library                          : libFLAC 1.3.3 (UTC 2019-08-04)

General
Complete name                            : 02. Easy On Me.flac
Format                                   : FLAC
Format/Info                              : Free Lossless Audio Codec
File size                                : 39.7 MiB
Duration                                 : 3 min 44 s
Overall bit rate mode                    : Variable
Overall bit rate                         : 1 481 kb/s
Album                                    : 30
Album/Performer                          : Adele
Part                                     : 1
Part/Total                               : 1
Track name                               : Easy On Me
Track name/Position                      : 2
Track name/Total                         : 12
Performer                                : Adele
Conductor                                : PMEDIA
Producer                                 : PMEDIA
Encoded by                               : PMEDIA
Label                                    : PMEDIA
Recorded date                            : 2021
ISRC                                     : USSM12105970
Copyright                                : PMEDIA
Comment                                  : PMEDIA
COMPILATION                              : PMEDIA
PUBLISHER                                : PMEDIA
RELEASECOUNTRY                           : PMEDIA
WORK                                     : PMEDIA
WWWPUBLISHER                             : PMEDIA
UPLOADER                                 : PMEDIA
CREDITS                                  : PMEDIA
PROVIDER                                 : PMEDIA

Audio
Format                                   : FLAC
Format/Info                              : Free Lossless Audio Codec
Duration                                 : 3 min 44 s
Bit rate mode                            : Variable
Bit rate                                 : 1 481 kb/s
Channel(s)                               : 2 channels
Channel layout                           : L R
Sampling rate                            : 44.1 kHz
Bit depth                                : 24 bits
Compression mode                         : Lossless
Stream size                              : 39.7 MiB (100%)
Writing library                          : libFLAC 1.3.3 (UTC 2019-08-04)

General
Complete name                            : 03. My Little Love.flac
Format                                   : FLAC
Format/Info                              : Free Lossless Audio Codec
File size                                : 69.2 MiB
Duration                                 : 6 min 29 s
Overall bit rate mode                    : Variable
Overall bit rate                         : 1 493 kb/s
Album                                    : 30
Album/Performer                          : Adele
Part                                     : 1
Part/Total                               : 1
Track name                               : My Little Love
Track name/Position                      : 3
Track name/Total                         : 12
Performer                                : Adele
Conductor                                : PMEDIA
Producer                                 : PMEDIA
Encoded by                               : PMEDIA
Label                                    : PMEDIA
Recorded date                            : 2021
ISRC                                     : USSM12105971
Copyright                                : PMEDIA
Comment                                  : PMEDIA
COMPILATION                              : PMEDIA
PUBLISHER                                : PMEDIA
RELEASECOUNTRY                           : PMEDIA
WORK                                     : PMEDIA
WWWPUBLISHER                             : PMEDIA
UPLOADER                                 : PMEDIA
CREDITS                                  : PMEDIA
PROVIDER                                 : PMEDIA

Audio
Format                                   : FLAC
Format/Info                              : Free Lossless Audio Codec
Duration                                 : 6 min 29 s
Bit rate mode                            : Variable
Bit rate                                 : 1 493 kb/s
Channel(s)                               : 2 channels
Channel layout                           : L R
Sampling rate                            : 44.1 kHz
Bit depth                                : 24 bits
Compression mode                         : Lossless
Stream size                              : 69.2 MiB (100%)
Writing library                          : libFLAC 1.3.3 (UTC 2019-08-04)

General
Complete name                            : 04. Cry Your Heart Out.flac
Format                                   : FLAC
Format/Info                              : Free Lossless Audio Codec
File size                                : 48.7 MiB
Duration                                 : 4 min 15 s
Overall bit rate mode                    : Variable
Overall bit rate                         : 1 599 kb/s
Album                                    : 30
Album/Performer                          : Adele
Part                                     : 1
Part/Total                               : 1
Track name                               : Cry Your Heart Out
Track name/Position                      : 4
Track name/Total                         : 12
Performer                                : Adele
Conductor                                : PMEDIA
Producer                                 : PMEDIA
Encoded by                               : PMEDIA
Label                                    : PMEDIA
Recorded date                            : 2021
ISRC                                     : USSM12105972
Copyright                                : PMEDIA
Comment                                  : PMEDIA
COMPILATION                              : PMEDIA
PUBLISHER                                : PMEDIA
RELEASECOUNTRY                           : PMEDIA
WORK                                     : PMEDIA
WWWPUBLISHER                             : PMEDIA
UPLOADER                                 : PMEDIA
CREDITS                                  : PMEDIA
PROVIDER                                 : PMEDIA

Audio
Format                                   : FLAC
Format/Info                              : Free Lossless Audio Codec
Duration                                 : 4 min 15 s
Bit rate mode                            : Variable
Bit rate                                 : 1 599 kb/s
Channel(s)                               : 2 channels
Channel layout                           : L R
Sampling rate                            : 44.1 kHz
Bit depth                                : 24 bits
Compression mode                         : Lossless
Stream size                              : 48.7 MiB (100%)
Writing library                          : libFLAC 1.3.3 (UTC 2019-08-04)

General
Complete name                            : 05. Oh My God.flac
Format                                   : FLAC
Format/Info                              : Free Lossless Audio Codec
File size                                : 46.7 MiB
Duration                                 : 3 min 45 s
Overall bit rate mode                    : Variable
Overall bit rate                         : 1 739 kb/s
Album                                    : 30
Album/Performer                          : Adele
Part                                     : 1
Part/Total                               : 1
Track name                               : Oh My God
Track name/Position                      : 5
Track name/Total                         : 12
Performer                                : Adele
Conductor                                : PMEDIA
Producer                                 : PMEDIA
Encoded by                               : PMEDIA
Label                                    : PMEDIA
Recorded date                            : 2021
ISRC                                     : USSM12105973
Copyright                                : PMEDIA
Comment                                  : PMEDIA
COMPILATION                              : PMEDIA
PUBLISHER                                : PMEDIA
RELEASECOUNTRY                           : PMEDIA
WORK                                     : PMEDIA
WWWPUBLISHER                             : PMEDIA
UPLOADER                                 : PMEDIA
CREDITS                                  : PMEDIA
PROVIDER                                 : PMEDIA

Audio
Format                                   : FLAC
Format/Info                              : Free Lossless Audio Codec
Duration                                 : 3 min 45 s
Bit rate mode                            : Variable
Bit rate                                 : 1 739 kb/s
Channel(s)                               : 2 channels
Channel layout                           : L R
Sampling rate                            : 44.1 kHz
Bit depth                                : 24 bits
Compression mode                         : Lossless
Stream size                              : 46.7 MiB (100%)
Writing library                          : libFLAC 1.3.3 (UTC 2019-08-04)

General
Complete name                            : 06. Can I Get It.flac
Format                                   : FLAC
Format/Info                              : Free Lossless Audio Codec
File size                                : 41.3 MiB
Duration                                 : 3 min 30 s
Overall bit rate mode                    : Variable
Overall bit rate                         : 1 648 kb/s
Album                                    : 30
Album/Performer                          : Adele
Part                                     : 1
Part/Total                               : 1
Track name                               : Can I Get It
Track name/Position                      : 6
Track name/Total                         : 12
Performer                                : Adele
Conductor                                : PMEDIA
Producer                                 : PMEDIA
Encoded by                               : PMEDIA
Label                                    : PMEDIA
Recorded date                            : 2021
ISRC                                     : USSM12105974
Copyright                                : PMEDIA
Comment                                  : PMEDIA
COMPILATION                              : PMEDIA
PUBLISHER                                : PMEDIA
RELEASECOUNTRY                           : PMEDIA
WORK                                     : PMEDIA
WWWPUBLISHER                             : PMEDIA
UPLOADER                                 : PMEDIA
CREDITS                                  : PMEDIA
PROVIDER                                 : PMEDIA

Audio
Format                                   : FLAC
Format/Info                              : Free Lossless Audio Codec
Duration                                 : 3 min 30 s
Bit rate mode                            : Variable
Bit rate                                 : 1 648 kb/s
Channel(s)                               : 2 channels
Channel layout                           : L R
Sampling rate                            : 44.1 kHz
Bit depth                                : 24 bits
Compression mode                         : Lossless
Stream size                              : 41.3 MiB (100%)
Writing library                          : libFLAC 1.3.3 (UTC 2019-08-04)

General
Complete name                            : 07. I Drink Wine.flac
Format                                   : FLAC
Format/Info                              : Free Lossless Audio Codec
File size                                : 69.1 MiB
Duration                                 : 6 min 16 s
Overall bit rate mode                    : Variable
Overall bit rate                         : 1 540 kb/s
Album                                    : 30
Album/Performer                          : Adele
Part                                     : 1
Part/Total                               : 1
Track name                               : I Drink Wine
Track name/Position                      : 7
Track name/Total                         : 12
Performer                                : Adele
Conductor                                : PMEDIA
Producer                                 : PMEDIA
Encoded by                               : PMEDIA
Label                                    : PMEDIA
Recorded date                            : 2021
ISRC                                     : USSM12105975
Copyright                                : PMEDIA
Comment                                  : PMEDIA
COMPILATION                              : PMEDIA
PUBLISHER                                : PMEDIA
RELEASECOUNTRY                           : PMEDIA
WORK                                     : PMEDIA
WWWPUBLISHER                             : PMEDIA
UPLOADER                                 : PMEDIA
CREDITS                                  : PMEDIA
PROVIDER                                 : PMEDIA

Audio
Format                                   : FLAC
Format/Info                              : Free Lossless Audio Codec
Duration                                 : 6 min 16 s
Bit rate mode                            : Variable
Bit rate                                 : 1 540 kb/s
Channel(s)                               : 2 channels
Channel layout                           : L R
Sampling rate                            : 44.1 kHz
Bit depth                                : 24 bits
Compression mode                         : Lossless
Stream size                              : 69.1 MiB (100%)
Writing library                          : libFLAC 1.3.3 (UTC 2019-08-04)

General
Complete name                            : 08. All Night Parking (feat. Erroll Garner).flac
Format                                   : FLAC
Format/Info                              : Free Lossless Audio Codec
File size                                : 28.3 MiB
Duration                                 : 2 min 41 s
Overall bit rate mode                    : Variable
Overall bit rate                         : 1 467 kb/s
Album                                    : 30
Album/Performer                          : Adele
Part                                     : 1
Part/Total                               : 1
Track name                               : All Night Parking (feat. Erroll Garner)
Track name/Position                      : 8
Track name/Total                         : 12
Performer                                : Adele
Conductor                                : PMEDIA
Producer                                 : PMEDIA
Encoded by                               : PMEDIA
Label                                    : PMEDIA
Recorded date                            : 2021
ISRC                                     : USSM12105976
Copyright                                : PMEDIA
Comment                                  : PMEDIA
COMPILATION                              : PMEDIA
PUBLISHER                                : PMEDIA
RELEASECOUNTRY                           : PMEDIA
WORK                                     : PMEDIA
WWWPUBLISHER                             : PMEDIA
UPLOADER                                 : PMEDIA
CREDITS                                  : PMEDIA
PROVIDER                                 : PMEDIA

Audio
Format                                   : FLAC
Format/Info                              : Free Lossless Audio Codec
Duration                                 : 2 min 41 s
Bit rate mode                            : Variable
Bit rate                                 : 1 467 kb/s
Channel(s)                               : 2 channels
Channel layout                           : L R
Sampling rate                            : 44.1 kHz
Bit depth                                : 24 bits
Compression mode                         : Lossless
Stream size                              : 28.3 MiB (100%)
Writing library                          : libFLAC 1.3.3 (UTC 2019-08-04)

General
Complete name                            : 09. Woman Like Me.flac
Format                                   : FLAC
Format/Info                              : Free Lossless Audio Codec
File size                                : 51.2 MiB
Duration                                 : 5 min 0 s
Overall bit rate mode                    : Variable
Overall bit rate                         : 1 430 kb/s
Album                                    : 30
Album/Performer                          : Adele
Part                                     : 1
Part/Total                               : 1
Track name                               : Woman Like Me
Track name/Position                      : 9
Track name/Total                         : 12
Performer                                : Adele
Conductor                                : PMEDIA
Producer                                 : PMEDIA
Encoded by                               : PMEDIA
Label                                    : PMEDIA
Recorded date                            : 2021
ISRC                                     : USSM12105977
Copyright                                : PMEDIA
Comment                                  : PMEDIA
COMPILATION                              : PMEDIA
PUBLISHER                                : PMEDIA
RELEASECOUNTRY                           : PMEDIA
WORK                                     : PMEDIA
WWWPUBLISHER                             : PMEDIA
UPLOADER                                 : PMEDIA
CREDITS                                  : PMEDIA
PROVIDER                                 : PMEDIA

Audio
Format                                   : FLAC
Format/Info                              : Free Lossless Audio Codec
Duration                                 : 5 min 0 s
Bit rate mode                            : Variable
Bit rate                                 : 1 430 kb/s
Channel(s)                               : 2 channels
Channel layout                           : L R
Sampling rate                            : 44.1 kHz
Bit depth                                : 24 bits
Compression mode                         : Lossless
Stream size                              : 51.2 MiB (100%)
Writing library                          : libFLAC 1.3.3 (UTC 2019-08-04)

General
Complete name                            : 10. Hold On.flac
Format                                   : FLAC
Format/Info                              : Free Lossless Audio Codec
File size                                : 63.1 MiB
Duration                                 : 6 min 6 s
Overall bit rate mode                    : Variable
Overall bit rate                         : 1 447 kb/s
Album                                    : 30
Album/Performer                          : Adele
Part                                     : 1
Part/Total                               : 1
Track name                               : Hold On
Track name/Position                      : 10
Track name/Total                         : 12
Performer                                : Adele
Conductor                                : PMEDIA
Producer                                 : PMEDIA
Encoded by                               : PMEDIA
Label                                    : PMEDIA
Recorded date                            : 2021
ISRC                                     : USSM12105978
Copyright                                : PMEDIA
Comment                                  : PMEDIA
COMPILATION                              : PMEDIA
PUBLISHER                                : PMEDIA
RELEASECOUNTRY                           : PMEDIA
WORK                                     : PMEDIA
WWWPUBLISHER                             : PMEDIA
UPLOADER                                 : PMEDIA
CREDITS                                  : PMEDIA
PROVIDER                                 : PMEDIA

Audio
Format                                   : FLAC
Format/Info                              : Free Lossless Audio Codec
Duration                                 : 6 min 6 s
Bit rate mode                            : Variable
Bit rate                                 : 1 447 kb/s
Channel(s)                               : 2 channels
Channel layout                           : L R
Sampling rate                            : 44.1 kHz
Bit depth                                : 24 bits
Compression mode                         : Lossless
Stream size                              : 63.1 MiB (100%)
Writing library                          : libFLAC 1.3.3 (UTC 2019-08-04)

General
Complete name                            : 11. To Be Loved.flac
Format                                   : FLAC
Format/Info                              : Free Lossless Audio Codec
File size                                : 73.4 MiB
Duration                                 : 6 min 43 s
Overall bit rate mode                    : Variable
Overall bit rate                         : 1 525 kb/s
Album                                    : 30
Album/Performer                          : Adele
Part                                     : 1
Part/Total                               : 1
Track name                               : To Be Loved
Track name/Position                      : 11
Track name/Total                         : 12
Performer                                : Adele
Conductor                                : PMEDIA
Producer                                 : PMEDIA
Encoded by                               : PMEDIA
Label                                    : PMEDIA
Recorded date                            : 2021
ISRC                                     : USSM12105979
Copyright                                : PMEDIA
Comment                                  : PMEDIA
COMPILATION                              : PMEDIA
PUBLISHER                                : PMEDIA
RELEASECOUNTRY                           : PMEDIA
WORK                                     : PMEDIA
WWWPUBLISHER                             : PMEDIA
UPLOADER                                 : PMEDIA
CREDITS                                  : PMEDIA
PROVIDER                                 : PMEDIA

Audio
Format                                   : FLAC
Format/Info                              : Free Lossless Audio Codec
Duration                                 : 6 min 43 s
Bit rate mode                            : Variable
Bit rate                                 : 1 525 kb/s
Channel(s)                               : 2 channels
Channel layout                           : L R
Sampling rate                            : 44.1 kHz
Bit depth                                : 24 bits
Compression mode                         : Lossless
Stream size                              : 73.4 MiB (100%)
Writing library                          : libFLAC 1.3.3 (UTC 2019-08-04)

General
Complete name                            : 12. Love Is A Game.flac
Format                                   : FLAC
Format/Info                              : Free Lossless Audio Codec
File size                                : 74.8 MiB
Duration                                 : 6 min 43 s
Overall bit rate mode                    : Variable
Overall bit rate                         : 1 557 kb/s
Album                                    : 30
Album/Performer                          : Adele
Part                                     : 1
Part/Total                               : 1
Track name                               : Love Is A Game
Track name/Position                      : 12
Track name/Total                         : 12
Performer                                : Adele
Conductor                                : PMEDIA
Producer                                 : PMEDIA
Encoded by                               : PMEDIA
Label                                    : PMEDIA
Recorded date                            : 2021
ISRC                                     : USSM12105980
Copyright                                : PMEDIA
Comment                                  : PMEDIA
COMPILATION                              : PMEDIA
PUBLISHER                                : PMEDIA
RELEASECOUNTRY                           : PMEDIA
WORK                                     : PMEDIA
WWWPUBLISHER                             : PMEDIA
UPLOADER                                 : PMEDIA
CREDITS                                  : PMEDIA
PROVIDER                                 : PMEDIA

Audio
Format                                   : FLAC
Format/Info                              : Free Lossless Audio Codec
Duration                                 : 6 min 43 s
Bit rate mode                            : Variable
Bit rate                                 : 1 557 kb/s
Channel(s)                               : 2 channels
Channel layout                           : L R
Sampling rate                            : 44.1 kHz
Bit depth                                : 24 bits
Compression mode                         : Lossless
Stream size                              : 74.8 MiB (100%)
Writing library                          : libFLAC 1.3.3 (UTC 2019-08-04)

General
Complete name                            : cover (1).jpg
Format                                   : JPEG
File size                                : 2.46 MiB

Image
Format                                   : JPEG
Width                                    : 1 400 pixels
Height                                   : 1 400 pixels
Color space                              : YUV
Chroma subsampling                       : 4:4:4
Bit depth                                : 8 bits
Compression mode                         : Lossy
Stream size                              : 2.46 MiB (100%)


General
Complete name                            : 01 Strangers By Nature.mp3
Format                                   : MPEG Audio
File size                                : 6.99 MiB
Duration                                 : 3 min 2 s
Overall bit rate mode                    : Constant
Overall bit rate                         : 320 kb/s
Album                                    : 30
Album/Performer                          : Adele
Part/Position                            : 1
Track name                               : Strangers By Nature
Track name/Position                      : 1
Grouping                                 : PMEDIA
Compilation                              : PMEDIA
Performer                                : Adele
Conductor                                : PMEDIA
Encoded by                               : PMEDIA
Publisher                                : PMEDIA
Genre                                    : Pop
Recorded date                            : 2021
Writing library                          : LAME3.100
ISRC                                     : PMEDIA
Copyright                                : PMEDIA
Cover                                    : Yes
Cover description                        : ≠
Cover type                               : Cover (front)
Cover MIME                               : image/jpeg
RELEASECOUNTRY                           : PMEDIA
Uploader                                 : PMEDIA
Credits                                  : PMEDIA
DISCNUMBER                               : 1
ENCODED-BY                               : PMEDIA
PUBLISHER                                : PMEDIA
WORK                                     : PMEDIA

Audio
Format                                   : MPEG Audio
Format version                           : Version 1
Format profile                           : Layer 3
Format settings                          : Joint stereo
Duration                                 : 3 min 2 s
Bit rate mode                            : Constant
Bit rate                                 : 320 kb/s
Channel(s)                               : 2 channels
Sampling rate                            : 44.1 kHz
Frame rate                               : 38.281 FPS (1152 SPF)
Compression mode                         : Lossy
Stream size                              : 6.95 MiB (99%)
Writing library                          : LAME3.100
Encoding settings                        : -m j -V 4 -q 3 -lowpass 20.5

General
Complete name                            : 02 Easy On Me.mp3
Format                                   : MPEG Audio
File size                                : 8.61 MiB
Duration                                 : 3 min 44 s
Overall bit rate mode                    : Constant
Overall bit rate                         : 320 kb/s
Album                                    : 30
Album/Performer                          : Adele
Part/Position                            : 1
Track name                               : Easy On Me
Track name/Position                      : 2
Grouping                                 : PMEDIA
Compilation                              : PMEDIA
Performer                                : Adele
Conductor                                : PMEDIA
Encoded by                               : PMEDIA
Publisher                                : PMEDIA
Genre                                    : Pop
Recorded date                            : 2021
Writing library                          : LAME3.100
ISRC                                     : PMEDIA
Copyright                                : PMEDIA
Cover                                    : Yes
Cover description                        : ≠
Cover type                               : Cover (front)
Cover MIME                               : image/jpeg
RELEASECOUNTRY                           : PMEDIA
Uploader                                 : PMEDIA
Credits                                  : PMEDIA
DISCNUMBER                               : 1
ENCODED-BY                               : PMEDIA
PUBLISHER                                : PMEDIA
WORK                                     : PMEDIA

Audio
Format                                   : MPEG Audio
Format version                           : Version 1
Format profile                           : Layer 3
Format settings                          : Joint stereo
Duration                                 : 3 min 44 s
Bit rate mode                            : Constant
Bit rate                                 : 320 kb/s
Channel(s)                               : 2 channels
Sampling rate                            : 44.1 kHz
Frame rate                               : 38.281 FPS (1152 SPF)
Compression mode                         : Lossy
Stream size                              : 8.57 MiB (100%)
Writing library                          : LAME3.100
Encoding settings                        : -m j -V 4 -q 3 -lowpass 20.5

General
Complete name                            : 03 My Little Love.mp3
Format                                   : MPEG Audio
File size                                : 14.9 MiB
Duration                                 : 6 min 29 s
Overall bit rate mode                    : Constant
Overall bit rate                         : 320 kb/s
Album                                    : 30
Album/Performer                          : Adele
Part/Position                            : 1
Track name                               : My Little Love
Track name/Position                      : 3
Grouping                                 : PMEDIA
Compilation                              : PMEDIA
Performer                                : Adele
Conductor                                : PMEDIA
Encoded by                               : PMEDIA
Publisher                                : PMEDIA
Genre                                    : Pop
Recorded date                            : 2021
Writing library                          : LAME3.100
ISRC                                     : PMEDIA
Copyright                                : PMEDIA
Cover                                    : Yes
Cover description                        : ≠
Cover type                               : Cover (front)
Cover MIME                               : image/jpeg
RELEASECOUNTRY                           : PMEDIA
Uploader                                 : PMEDIA
Credits                                  : PMEDIA
DISCNUMBER                               : 1
ENCODED-BY                               : PMEDIA
PUBLISHER                                : PMEDIA
WORK                                     : PMEDIA

Audio
Format                                   : MPEG Audio
Format version                           : Version 1
Format profile                           : Layer 3
Format settings                          : Joint stereo
Duration                                 : 6 min 29 s
Bit rate mode                            : Constant
Bit rate                                 : 320 kb/s
Channel(s)                               : 2 channels
Sampling rate                            : 44.1 kHz
Frame rate                               : 38.281 FPS (1152 SPF)
Compression mode                         : Lossy
Stream size                              : 14.8 MiB (100%)
Writing library                          : LAME3.100
Encoding settings                        : -m j -V 4 -q 3 -lowpass 20.5

General
Complete name                            : 04 Cry Your Heart Out.mp3
Format                                   : MPEG Audio
File size                                : 9.78 MiB
Duration                                 : 4 min 15 s
Overall bit rate mode                    : Constant
Overall bit rate                         : 320 kb/s
Album                                    : 30
Album/Performer                          : Adele
Part/Position                            : 1
Track name                               : Cry Your Heart Out
Track name/Position                      : 4
Grouping                                 : PMEDIA
Compilation                              : PMEDIA
Performer                                : Adele
Conductor                                : PMEDIA
Encoded by                               : PMEDIA
Publisher                                : PMEDIA
Genre                                    : Pop
Recorded date                            : 2021
Writing library                          : LAME3.100
ISRC                                     : PMEDIA
Copyright                                : PMEDIA
Cover                                    : Yes
Cover description                        : ≠
Cover type                               : Cover (front)
Cover MIME                               : image/jpeg
RELEASECOUNTRY                           : PMEDIA
Uploader                                 : PMEDIA
Credits                                  : PMEDIA
DISCNUMBER                               : 1
ENCODED-BY                               : PMEDIA
PUBLISHER                                : PMEDIA
WORK                                     : PMEDIA

Audio
Format                                   : MPEG Audio
Format version                           : Version 1
Format profile                           : Layer 3
Format settings                          : Joint stereo
Duration                                 : 4 min 15 s
Bit rate mode                            : Constant
Bit rate                                 : 320 kb/s
Channel(s)                               : 2 channels
Sampling rate                            : 44.1 kHz
Frame rate                               : 38.281 FPS (1152 SPF)
Compression mode                         : Lossy
Stream size                              : 9.74 MiB (100%)
Writing library                          : LAME3.100
Encoding settings                        : -m j -V 4 -q 3 -lowpass 20.5

General
Complete name                            : 05 Oh My God.mp3
Format                                   : MPEG Audio
File size                                : 8.63 MiB
Duration                                 : 3 min 45 s
Overall bit rate mode                    : Constant
Overall bit rate                         : 320 kb/s
Album                                    : 30
Album/Performer                          : Adele
Part/Position                            : 1
Track name                               : Oh My God
Track name/Position                      : 5
Grouping                                 : PMEDIA
Compilation                              : PMEDIA
Performer                                : Adele
Conductor                                : PMEDIA
Encoded by                               : PMEDIA
Publisher                                : PMEDIA
Genre                                    : Pop
Recorded date                            : 2021
Writing library                          : LAME3.100
ISRC                                     : PMEDIA
Copyright                                : PMEDIA
Cover                                    : Yes
Cover description                        : ≠
Cover type                               : Cover (front)
Cover MIME                               : image/jpeg
RELEASECOUNTRY                           : PMEDIA
Uploader                                 : PMEDIA
Credits                                  : PMEDIA
DISCNUMBER                               : 1
ENCODED-BY                               : PMEDIA
PUBLISHER                                : PMEDIA
WORK                                     : PMEDIA

Audio
Format                                   : MPEG Audio
Format version                           : Version 1
Format profile                           : Layer 3
Format settings                          : Joint stereo
Duration                                 : 3 min 45 s
Bit rate mode                            : Constant
Bit rate                                 : 320 kb/s
Channel(s)                               : 2 channels
Sampling rate                            : 44.1 kHz
Frame rate                               : 38.281 FPS (1152 SPF)
Compression mode                         : Lossy
Stream size                              : 8.59 MiB (100%)
Writing library                          : LAME3.100
Encoding settings                        : -m j -V 4 -q 3 -lowpass 20.5

General
Complete name                            : 06 Can I Get It.mp3
Format                                   : MPEG Audio
File size                                : 8.06 MiB
Duration                                 : 3 min 30 s
Overall bit rate mode                    : Constant
Overall bit rate                         : 320 kb/s
Album                                    : 30
Album/Performer                          : Adele
Part/Position                            : 1
Track name                               : Can I Get It
Track name/Position                      : 6
Grouping                                 : PMEDIA
Compilation                              : PMEDIA
Performer                                : Adele
Conductor                                : PMEDIA
Encoded by                               : PMEDIA
Publisher                                : PMEDIA
Genre                                    : Pop
Recorded date                            : 2021
Writing library                          : LAME3.100
ISRC                                     : PMEDIA
Copyright                                : PMEDIA
Cover                                    : Yes
Cover description                        : ≠
Cover type                               : Cover (front)
Cover MIME                               : image/jpeg
RELEASECOUNTRY                           : PMEDIA
Uploader                                 : PMEDIA
Credits                                  : PMEDIA
DISCNUMBER                               : 1
ENCODED-BY                               : PMEDIA
PUBLISHER                                : PMEDIA
WORK                                     : PMEDIA

Audio
Format                                   : MPEG Audio
Format version                           : Version 1
Format profile                           : Layer 3
Format settings                          : Joint stereo
Duration                                 : 3 min 30 s
Bit rate mode                            : Constant
Bit rate                                 : 320 kb/s
Channel(s)                               : 2 channels
Sampling rate                            : 44.1 kHz
Frame rate                               : 38.281 FPS (1152 SPF)
Compression mode                         : Lossy
Stream size                              : 8.03 MiB (100%)
Writing library                          : LAME3.100
Encoding settings                        : -m j -V 4 -q 3 -lowpass 20.5

General
Complete name                            : 07 I Drink Wine.mp3
Format                                   : MPEG Audio
File size                                : 14.4 MiB
Duration                                 : 6 min 16 s
Overall bit rate mode                    : Constant
Overall bit rate                         : 320 kb/s
Album                                    : 30
Album/Performer                          : Adele
Part/Position                            : 1
Track name                               : I Drink Wine
Track name/Position                      : 7
Grouping                                 : PMEDIA
Compilation                              : PMEDIA
Performer                                : Adele
Conductor                                : PMEDIA
Encoded by                               : PMEDIA
Publisher                                : PMEDIA
Genre                                    : Pop
Recorded date                            : 2021
Writing library                          : LAME3.100
ISRC                                     : PMEDIA
Copyright                                : PMEDIA
Cover                                    : Yes
Cover description                        : ≠
Cover type                               : Cover (front)
Cover MIME                               : image/jpeg
RELEASECOUNTRY                           : PMEDIA
Uploader                                 : PMEDIA
Credits                                  : PMEDIA
DISCNUMBER                               : 1
ENCODED-BY                               : PMEDIA
PUBLISHER                                : PMEDIA
WORK                                     : PMEDIA

Audio
Format                                   : MPEG Audio
Format version                           : Version 1
Format profile                           : Layer 3
Format settings                          : Joint stereo
Duration                                 : 6 min 16 s
Bit rate mode                            : Constant
Bit rate                                 : 320 kb/s
Channel(s)                               : 2 channels
Sampling rate                            : 44.1 kHz
Frame rate                               : 38.281 FPS (1152 SPF)
Compression mode                         : Lossy
Stream size                              : 14.4 MiB (100%)
Writing library                          : LAME3.100
Encoding settings                        : -m j -V 4 -q 3 -lowpass 20.5

General
Complete name                            : 08 All Night Parking (Interlude).mp3
Format                                   : MPEG Audio
File size                                : 6.21 MiB
Duration                                 : 2 min 41 s
Overall bit rate mode                    : Constant
Overall bit rate                         : 320 kb/s
Album                                    : 30
Album/Performer                          : Adele
Part/Position                            : 1
Track name                               : All Night Parking (Interlude)
Track name/Position                      : 8
Grouping                                 : PMEDIA
Compilation                              : PMEDIA
Performer                                : Adele
Conductor                                : PMEDIA
Encoded by                               : PMEDIA
Publisher                                : PMEDIA
Genre                                    : Pop
Recorded date                            : 2021
Writing library                          : LAME3.100
ISRC                                     : PMEDIA
Copyright                                : PMEDIA
Cover                                    : Yes
Cover description                        : ≠
Cover type                               : Cover (front)
Cover MIME                               : image/jpeg
RELEASECOUNTRY                           : PMEDIA
Uploader                                 : PMEDIA
Credits                                  : PMEDIA
DISCNUMBER                               : 1
ENCODED-BY                               : PMEDIA
PUBLISHER                                : PMEDIA
WORK                                     : PMEDIA

Audio
Format                                   : MPEG Audio
Format version                           : Version 1
Format profile                           : Layer 3
Format settings                          : Joint stereo / MS Stereo
Duration                                 : 2 min 41 s
Bit rate mode                            : Constant
Bit rate                                 : 320 kb/s
Channel(s)                               : 2 channels
Sampling rate                            : 44.1 kHz
Frame rate                               : 38.281 FPS (1152 SPF)
Compression mode                         : Lossy
Stream size                              : 6.18 MiB (99%)
Writing library                          : LAME3.100
Encoding settings                        : -m j -V 4 -q 3 -lowpass 20.5

General
Complete name                            : 09 Woman Like Me.mp3
Format                                   : MPEG Audio
File size                                : 11.5 MiB
Duration                                 : 5 min 0 s
Overall bit rate mode                    : Constant
Overall bit rate                         : 320 kb/s
Album                                    : 30
Album/Performer                          : Adele
Part/Position                            : 1
Track name                               : Woman Like Me
Track name/Position                      : 9
Grouping                                 : PMEDIA
Compilation                              : PMEDIA
Performer                                : Adele
Conductor                                : PMEDIA
Encoded by                               : PMEDIA
Publisher                                : PMEDIA
Genre                                    : Pop
Recorded date                            : 2021
Writing library                          : LAME3.100
ISRC                                     : PMEDIA
Copyright                                : PMEDIA
Cover                                    : Yes
Cover description                        : ≠
Cover type                               : Cover (front)
Cover MIME                               : image/jpeg
RELEASECOUNTRY                           : PMEDIA
Uploader                                 : PMEDIA
Credits                                  : PMEDIA
DISCNUMBER                               : 1
ENCODED-BY                               : PMEDIA
PUBLISHER                                : PMEDIA
WORK                                     : PMEDIA

Audio
Format                                   : MPEG Audio
Format version                           : Version 1
Format profile                           : Layer 3
Format settings                          : Joint stereo / MS Stereo
Duration                                 : 5 min 0 s
Bit rate mode                            : Constant
Bit rate                                 : 320 kb/s
Channel(s)                               : 2 channels
Sampling rate                            : 44.1 kHz
Frame rate                               : 38.281 FPS (1152 SPF)
Compression mode                         : Lossy
Stream size                              : 11.5 MiB (100%)
Writing library                          : LAME3.100
Encoding settings                        : -m j -V 4 -q 3 -lowpass 20.5

General
Complete name                            : 10 Hold On.mp3
Format                                   : MPEG Audio
File size                                : 14.0 MiB
Duration                                 : 6 min 6 s
Overall bit rate mode                    : Constant
Overall bit rate                         : 320 kb/s
Album                                    : 30
Album/Performer                          : Adele
Part/Position                            : 1
Track name                               : Hold On
Track name/Position                      : 10
Grouping                                 : PMEDIA
Compilation                              : PMEDIA
Performer                                : Adele
Conductor                                : PMEDIA
Encoded by                               : PMEDIA
Publisher                                : PMEDIA
Genre                                    : Pop
Recorded date                            : 2021
Writing library                          : LAME3.100
ISRC                                     : PMEDIA
Copyright                                : PMEDIA
Cover                                    : Yes
Cover description                        : ≠
Cover type                               : Cover (front)
Cover MIME                               : image/jpeg
RELEASECOUNTRY                           : PMEDIA
Uploader                                 : PMEDIA
Credits                                  : PMEDIA
DISCNUMBER                               : 1
ENCODED-BY                               : PMEDIA
PUBLISHER                                : PMEDIA
WORK                                     : PMEDIA

Audio
Format                                   : MPEG Audio
Format version                           : Version 1
Format profile                           : Layer 3
Format settings                          : Joint stereo / MS Stereo
Duration                                 : 6 min 6 s
Bit rate mode                            : Constant
Bit rate                                 : 320 kb/s
Channel(s)                               : 2 channels
Sampling rate                            : 44.1 kHz
Frame rate                               : 38.281 FPS (1152 SPF)
Compression mode                         : Lossy
Stream size                              : 14.0 MiB (100%)
Writing library                          : LAME3.100
Encoding settings                        : -m j -V 4 -q 3 -lowpass 20.5

General
Complete name                            : 11 To Be Loved.mp3
Format                                   : MPEG Audio
File size                                : 15.4 MiB
Duration                                 : 6 min 44 s
Overall bit rate mode                    : Constant
Overall bit rate                         : 320 kb/s
Album                                    : 30
Album/Performer                          : Adele
Part/Position                            : 1
Track name                               : To Be Loved
Track name/Position                      : 11
Grouping                                 : PMEDIA
Compilation                              : PMEDIA
Performer                                : Adele
Conductor                                : PMEDIA
Encoded by                               : PMEDIA
Publisher                                : PMEDIA
Genre                                    : Pop
Recorded date                            : 2021
Writing library                          : LAME3.100
ISRC                                     : PMEDIA
Copyright                                : PMEDIA
Cover                                    : Yes
Cover description                        : ≠
Cover type                               : Cover (front)
Cover MIME                               : image/jpeg
RELEASECOUNTRY                           : PMEDIA
Uploader                                 : PMEDIA
Credits                                  : PMEDIA
DISCNUMBER                               : 1
ENCODED-BY                               : PMEDIA
PUBLISHER                                : PMEDIA
WORK                                     : PMEDIA

Audio
Format                                   : MPEG Audio
Format version                           : Version 1
Format profile                           : Layer 3
Format settings                          : Joint stereo
Duration                                 : 6 min 44 s
Bit rate mode                            : Constant
Bit rate                                 : 320 kb/s
Channel(s)                               : 2 channels
Sampling rate                            : 44.1 kHz
Frame rate                               : 38.281 FPS (1152 SPF)
Compression mode                         : Lossy
Stream size                              : 15.4 MiB (100%)
Writing library                          : LAME3.100
Encoding settings                        : -m j -V 4 -q 3 -lowpass 20.5

General
Complete name                            : 12 Love Is A Game.mp3
Format                                   : MPEG Audio
File size                                : 15.4 MiB
Duration                                 : 6 min 43 s
Overall bit rate mode                    : Constant
Overall bit rate                         : 320 kb/s
Album                                    : 30
Album/Performer                          : Adele
Part/Position                            : 1
Track name                               : Love Is A Game
Track name/Position                      : 12
Grouping                                 : PMEDIA
Compilation                              : PMEDIA
Performer                                : Adele
Conductor                                : PMEDIA
Encoded by                               : PMEDIA
Publisher                                : PMEDIA
Genre                                    : Pop
Recorded date                            : 2021
Writing library                          : LAME3.100
ISRC                                     : PMEDIA
Copyright                                : PMEDIA
Cover                                    : Yes
Cover description                        : ≠
Cover type                               : Cover (front)
Cover MIME                               : image/jpeg
RELEASECOUNTRY                           : PMEDIA
Uploader                                 : PMEDIA
Credits                                  : PMEDIA
DISCNUMBER                               : 1
ENCODED-BY                               : PMEDIA
PUBLISHER                                : PMEDIA
WORK                                     : PMEDIA

Audio
Format                                   : MPEG Audio
Format version                           : Version 1
Format profile                           : Layer 3
Format settings                          : Joint stereo
Duration                                 : 6 min 43 s
Bit rate mode                            : Constant
Bit rate                                 : 320 kb/s
Channel(s)                               : 2 channels
Sampling rate                            : 44.1 kHz
Frame rate                               : 38.281 FPS (1152 SPF)
Compression mode                         : Lossy
Stream size                              : 15.4 MiB (100%)
Writing library                          : LAME3.100
Encoding settings                        : -m j -V 4 -q 3 -lowpass 20.5

Readme

Password & My Message