Fast Download Mirrors

Amazon Queen (2021) • Movie | 1080p.AMZN.WEBRip.DDP2.0.x264-NOGRP

Amazon Queen (2021)
Amazon Queen 87min | Action, Drama | September 16, 2021 (United States) Summary: A group of tourists joins the Amazon Forest riverboat "Queen" as it ventures upriver, to visit indigenous villages and explore jungle habitats. But a dark cloud of thievery and menace thunde... Read all
Countries: United StatesLanguages: English, Portuguese

A group of tourists joins the Amazon Forest riverboat “Queen” as it ventures upriver, to visit indigenous villages and explore jungle habitats. But a dark cloud of thievery and menace thunders aboard, threatening all with death.

Mirrors: MirrorAce, MultiUp, Gdrive[GDTOT, Sharer]
Format: MKV
Credits: RARBG

Download

Video
ID : 1
Format : AVC
Format/Info : Advanced Video Codec
Format profile : High@L4
Format settings : CABAC / 4 Ref Frames
Format settings, CABAC : Yes
Format settings, Reference frames : 4 frames
Codec ID : V_MPEG4/ISO/AVC
Duration : 1 h 25 min
Bit rate : 6 354 kb/s
Width : 1 920 pixels
Height : 1 040 pixels
Display aspect ratio : 1.85:1
Frame rate mode : Constant
Frame rate : 23.976 (24000/1001) FPS
Color space : YUV
Chroma subsampling : 4:2:0
Bit depth : 8 bits
Scan type : Progressive
Bits/(Pixel*Frame) : 0.133
Stream size : 3.81 GiB (95%)
Default : Yes
Forced : No
Color range : Limited
Color primaries : BT.709
Transfer characteristics : BT.709
Matrix coefficients : BT.709

Audio
ID : 2
Format : E-AC-3
Format/Info : Enhanced AC-3
Commercial name : Dolby Digital Plus
Codec ID : A_EAC3
Duration : 1 h 25 min
Bit rate mode : Constant
Bit rate : 224 kb/s
Channel(s) : 2 channels
Channel layout : L R
Sampling rate : 48.0 kHz
Frame rate : 31.250 FPS (1536 SPF)
Compression mode : Lossy
Stream size : 138 MiB (3%)
Language : English
Service kind : Complete Main
Default : Yes
Forced : No

Text
ID : 3
Format : UTF-8
Codec ID : S_TEXT/UTF8
Codec ID/Info : UTF-8 Plain Text
Language : English
Default : Yes
Forced : No

Readme

Password & My Message

Screenshots