Fast Download Mirrors

Arsène Wenger: Invincible (2021) • Movie | 1080p.BluRay.AVC.DTS-HD.MA.5.1-NOGRP [16.7GB]

Arsène Wenger: Invincible (2021)
Arsène Wenger: Invincible Documentary | November 11, 2021 (United Kingdom) Summary: The definitive documentary about Arsène Wenger, the man who transformed Arsenal into the legendary football club it is today.
Countries: United Kingdom

Framed against the backdrop of Arsenal’s historic “Invincible” season of 2003-04, the first and only occasion a team has gone an entire Premier League campaign without defeat, the film sees Wenger reflect candidly on his revolutionary era at Arsenal and the emotional and personal turmoil that surrounded his controversial exit after 22 years.

Mirrors: 1fichier, MultiUp, Gdrive[GDTOT, Sharer, GAdrive]
Format: MKV
Credits: -
File Credits: abhiramskrishna

Download

General
Unique ID                                : 161942901338249841486734609306713792474 (0x79D5117BE6A40771B75C983903D71FDA)
Complete name                            : Arsene.Wenger.Invincible.2021.1080p.BluRay.mkv
Format                                   : Matroska
Format version                           : Version 4
File size                                : 16.7 GiB
Duration                                 : 1 h 35 min
Overall bit rate mode                    : Variable
Overall bit rate                         : 25.1 Mb/s
Encoded date                             : UTC 2021-11-23 01:06:10
Writing application                      : mkvmerge v63.0.0 ('Everything') 64-bit
Writing library                          : libebml v1.4.2 + libmatroska v1.6.4

Video
ID                                       : 1
ID in the original source medium         : 4113 (0x1011)
Format                                   : AVC
Format/Info                              : Advanced Video Codec
Format profile                           : High@L4.1
Format settings                          : CABAC / 4 Ref Frames
Format settings, CABAC                   : Yes
Format settings, Reference frames        : 4 frames
Format settings, picture structure       : Frame
Codec ID                                 : V_MPEG4/ISO/AVC
Duration                                 : 1 h 35 min
Bit rate mode                            : Variable
Bit rate                                 : 21.8 Mb/s
Maximum bit rate                         : 38.0 Mb/s
Width                                    : 1 920 pixels
Height                                   : 1 080 pixels
Display aspect ratio                     : 16:9
Frame rate mode                          : Constant
Frame rate                               : 25.000 FPS
Color space                              : YUV
Chroma subsampling                       : 4:2:0
Bit depth                                : 8 bits
Scan type                                : Interlaced
Scan type, store method                  : Interleaved fields
Scan order                               : Top Field First
Bits/(Pixel*Frame)                       : 0.421
Stream size                              : 14.5 GiB (87%)
Default                                  : Yes
Forced                                   : No
Original source medium                   : Blu-ray

Audio
ID                                       : 2
ID in the original source medium         : 4353 (0x1101)
Format                                   : DTS XLL
Format/Info                              : Digital Theater Systems
Commercial name                          : DTS-HD Master Audio
Codec ID                                 : A_DTS
Duration                                 : 1 h 35 min
Bit rate mode                            : Variable
Bit rate                                 : 3 234 kb/s
Channel(s)                               : 6 channels
Channel layout                           : C L R Ls Rs LFE
Sampling rate                            : 48.0 kHz
Frame rate                               : 93.750 FPS (512 SPF)
Bit depth                                : 24 bits
Compression mode                         : Lossless
Stream size                              : 2.16 GiB (13%)
Language                                 : English
Default                                  : Yes
Forced                                   : No
Original source medium                   : Blu-ray

Text
ID                                       : 3
ID in the original source medium         : 4608 (0x1200)
Format                                   : PGS
Muxing mode                              : zlib
Codec ID                                 : S_HDMV/PGS
Codec ID/Info                            : Picture based subtitle format used on BDs/HD-DVDs
Duration                                 : 1 h 33 min
Bit rate                                 : 49.0 kb/s
Count of elements                        : 2914
Stream size                              : 32.6 MiB (0%)
Language                                 : English
Default                                  : Yes
Forced                                   : No
Original source medium                   : Blu-ray

Menu
00:00:00.000                             : en:Chapter 01
00:06:15.920                             : en:Chapter 02
00:11:02.440                             : en:Chapter 03
00:17:10.920                             : en:Chapter 04
00:22:55.000                             : en:Chapter 05
00:28:28.160                             : en:Chapter 06
00:36:58.000                             : en:Chapter 07
00:47:09.880                             : en:Chapter 08
00:57:46.560                             : en:Chapter 09
01:10:43.640                             : en:Chapter 10
01:20:52.520                             : en:Chapter 11
01:28:47.040                             : en:Chapter 12

Readme/Password

Password & My Message