Fast Download Mirrors

Bangkok Breaking (2021-) • TVSeries | 1080p.NF.WEB-DL.H264.DDP5.1-WiNTeaM

Bangkok Breaking (2021-) • TVSeries
Bangkok Breaking 60min | Action, Crime, Drama, Thriller | September 23, 2021 (United States) Summary: Newly arrived in Bangkok, Wanchai joins the road rescue service and unravels a city-wide conspiracy with the help of a journalist.
Countries: ThailandLanguages: Thai

Newly arrived in Bangkok, Wanchai joins the road rescue service and unravels a city-wide conspiracy with the help of a journalist.

Mirrors: MirrorAce, MultiUp, Gdrive[GDTOT, Sharer], 1fichier
Format: MKV
Credits: WiNTeaM
Season-1 Complete

Download

              __          ___ _   _ _______         __  __ 
    \ \        / (_) \ | |__   __|       |  \/  |
     \ \  /\  / / _|  \| |  | | ___  __ _| \  / |
      \ \/  \/ / | | . ` |  | |/ _ \/ _` | |\/| |
       \  /\  /  | | |\  |  | |  __/ (_| | |  | |
        \/  \/   |_|_| \_|  |_|\___|\__,_|_|  |_|      
                                       since 2013
    _____________________________________________
    Proudly Presents:

    Release Name....: Bangkok.Breaking.S01.1080p.NF.WEB-DL.H264.DDP5.1-WiNTeaM
    IMDB............: https://www.imdb.com/title/tt14202282/
    Genre...........: Action, Drama, Crime
    Source..........: Netflix
    Video...........: AVC - H264 | 1920x1080 | 16.9 | 24.000 fps  
    Audio...........: Thai & English | E-AC-3 @ 640 kb/s | 6 channels
    Subtitles.......: PT (EUR), French, English, Italian, Dutch, etc..
    Runtime.........: 59 min x6
    Size............: 11 Gb
    Ripper..........: Morthis

    ...................................................................
 
    Ripper Notes....: Feel free to share our releases, but please don't
                      change anything.

                      Respect our work

    ...................................................................

    Group Greets....: To all our Friends & Followers.

    ___________________________________________________________________

                      *** WiNTeaM  / Since 2013 ***
                    
Format                      : Matroska
Format version              : Version 4
File size                   : 1.92 GiB
Duration                    : 56 min 46 s
Overall bit rate mode       : Variable
Overall bit rate            : 4 834 kb/s
Encoded date                : UTC 2021-09-23 19:06:49
Writing application         : mkvmerge v61.0.0 ('So') 64-bit
Writing library             : libebml v1.4.2 + libmatroska v1.6.4
Ripped by                   : Morthis@WiNTeaM
Source                      : Netflix

Video
ID                          : 1
Format                      : AVC
Format/Info                 : Advanced Video Codec
Format profile              : High@L4
Format settings             : CABAC / 4 Ref Frames
Format settings, CABAC      : Yes
Format settings, Reference  : 4 frames
Codec ID                    : V_MPEG4/ISO/AVC
Duration                    : 56 min 45 s
Bit rate mode               : Variable
Bit rate                    : 3 550 kb/s
Maximum bit rate            : 20.0 Mb/s
Width                       : 1 920 pixels
Height                      : 1 080 pixels
Display aspect ratio        : 16:9
Frame rate mode             : Constant
Frame rate                  : 24.000 FPS
Color space                 : YUV
Chroma subsampling          : 4:2:0
Bit depth                   : 8 bits
Scan type                   : Progressive
Bits/(Pixel*Frame)          : 0.071
Stream size                 : 1.41 GiB (73%)
Writing library             : x264 core 148 r2722 1b0121b
Encoding settings           : cabac=1 / ref=4 / deblock=1:0:0 / analyse=0x3:0x111 / me=umh / subme=10 / psy=1 / psy_rd=1.00:0.00 / mixed_ref=1 / me_range=120 / chroma_me=1 / trellis=2 / 8x8dct=1 / cqm=0 / deadzone=21,11 / fast_pskip=1 / chroma_qp_offset=-2 / threads=8 / lookahead_threads=2 / sliced_threads=0 / nr=0 / decimate=1 / interlaced=0 / bluray_compat=0 / stitchable=1 / constrained_intra=0 / bframes=16 / b_pyramid=2 / b_adapt=2 / b_bias=0 / direct=3 / weightb=1 / open_gop=0 / weightp=2 / keyint=240 / keyint_min=121 / scenecut=0 / intra_refresh=0 / rc_lookahead=240 / rc=crf / mbtree=1 / crf=16.0 / qcomp=0.50 / qpmin=6 / qpmax=51 / qpstep=4 / vbv_maxrate=20000 / vbv_bufsize=25000 / crf_max=0.0 / nal_hrd=vbr / filler=0 / ip_ratio=1.40 / aq=1:0.80
Default                     : Yes
Forced                      : No

Audio #1
ID                          : 2
Format                      : E-AC-3
Format/Info                 : Enhanced AC-3
Commercial name             : Dolby Digital Plus
Codec ID                    : A_EAC3
Duration                    : 56 min 46 s
Bit rate mode               : Constant
Bit rate                    : 640 kb/s
Channel(s)                  : 6 channels
Channel layout              : L R C LFE Ls Rs
Sampling rate               : 48.0 kHz
Frame rate                  : 31.250 FPS (1536 SPF)
Compression mode            : Lossy
Stream size                 : 260 MiB (13%)
Title                       : English
Language                    : English
Service kind                : Complete Main
Default                     : No
Forced                      : No

Audio #2
ID                          : 3
Format                      : E-AC-3
Format/Info                 : Enhanced AC-3
Commercial name             : Dolby Digital Plus
Codec ID                    : A_EAC3
Duration                    : 56 min 46 s
Bit rate mode               : Constant
Bit rate                    : 640 kb/s
Channel(s)                  : 6 channels
Channel layout              : L R C LFE Ls Rs
Sampling rate               : 48.0 kHz
Frame rate                  : 31.250 FPS (1536 SPF)
Compression mode            : Lossy
Stream size                 : 260 MiB (13%)
Title                       : Thai
Language                    : Thai
Service kind                : Complete Main
Default                     : No
Forced                      : No

Text #1
ID                          : 4
Format                      : UTF-8
Codec ID                    : S_TEXT/UTF8
Codec ID/Info               : UTF-8 Plain Text
Duration                    : 56 min 0 s
Bit rate                    : 47 b/s
Count of elements           : 666
Stream size                 : 19.5 KiB (0%)
Title                       : English
Language                    : English
Default                     : No
Forced                      : No

Text #2
ID                          : 5
Format                      : UTF-8
Codec ID                    : S_TEXT/UTF8
Codec ID/Info               : UTF-8 Plain Text
Duration                    : 56 min 0 s
Bit rate                    : 78 b/s
Count of elements           : 683
Stream size                 : 32.3 KiB (0%)
Title                       : Arabic
Language                    : Arabic
Default                     : No
Forced                      : No

Text #3
ID                          : 6
Format                      : UTF-8
Codec ID                    : S_TEXT/UTF8
Codec ID/Info               : UTF-8 Plain Text
Duration                    : 56 min 0 s
Bit rate                    : 44 b/s
Count of elements           : 691
Stream size                 : 18.2 KiB (0%)
Title                       : Chinese Simplified
Language                    : Chinese
Default                     : No
Forced                      : No

Text #4
ID                          : 7
Format                      : UTF-8
Codec ID                    : S_TEXT/UTF8
Codec ID/Info               : UTF-8 Plain Text
Duration                    : 56 min 0 s
Bit rate                    : 45 b/s
Count of elements           : 690
Stream size                 : 18.6 KiB (0%)
Title                       : Chinese Traditional
Language                    : Chinese
Default                     : No
Forced                      : No

Text #5
ID                          : 8
Format                      : UTF-8
Codec ID                    : S_TEXT/UTF8
Codec ID/Info               : UTF-8 Plain Text
Duration                    : 56 min 0 s
Bit rate                    : 45 b/s
Count of elements           : 681
Stream size                 : 18.5 KiB (0%)
Title                       : Croatian
Language                    : Croatian
Default                     : No
Forced                      : No

Text #6
ID                          : 9
Format                      : UTF-8
Codec ID                    : S_TEXT/UTF8
Codec ID/Info               : UTF-8 Plain Text
Duration                    : 56 min 0 s
Bit rate                    : 46 b/s
Count of elements           : 679
Stream size                 : 19.0 KiB (0%)
Title                       : Czech
Language                    : Czech
Default                     : No
Forced                      : No

Text #7
ID                          : 10
Format                      : UTF-8
Codec ID                    : S_TEXT/UTF8
Codec ID/Info               : UTF-8 Plain Text
Duration                    : 56 min 0 s
Bit rate                    : 46 b/s
Count of elements           : 680
Stream size                 : 18.9 KiB (0%)
Title                       : Danish
Language                    : Danish
Default                     : No
Forced                      : No

Text #8
ID                          : 11
Format                      : UTF-8
Codec ID                    : S_TEXT/UTF8
Codec ID/Info               : UTF-8 Plain Text
Duration                    : 56 min 0 s
Bit rate                    : 45 b/s
Count of elements           : 666
Stream size                 : 18.7 KiB (0%)
Title                       : Dutch
Language                    : Dutch
Default                     : No
Forced                      : No

Text #9
ID                          : 12
Format                      : UTF-8
Codec ID                    : S_TEXT/UTF8
Codec ID/Info               : UTF-8 Plain Text
Duration                    : 56 min 0 s
Bit rate                    : 47 b/s
Count of elements           : 681
Stream size                 : 19.4 KiB (0%)
Title                       : Finnish
Language                    : Finnish
Default                     : No
Forced                      : No

Text #10
ID                          : 13
Format                      : UTF-8
Codec ID                    : S_TEXT/UTF8
Codec ID/Info               : UTF-8 Plain Text
Duration                    : 56 min 0 s
Bit rate                    : 49 b/s
Count of elements           : 673
Stream size                 : 20.4 KiB (0%)
Title                       : French
Language                    : French
Default                     : No
Forced                      : No

Text #11
ID                          : 14
Format                      : UTF-8
Codec ID                    : S_TEXT/UTF8
Codec ID/Info               : UTF-8 Plain Text
Duration                    : 56 min 0 s
Bit rate                    : 50 b/s
Count of elements           : 680
Stream size                 : 20.8 KiB (0%)
Title                       : German
Language                    : German
Default                     : No
Forced                      : No

Text #12
ID                          : 15
Format                      : UTF-8
Codec ID                    : S_TEXT/UTF8
Codec ID/Info               : UTF-8 Plain Text
Duration                    : 56 min 0 s
Bit rate                    : 80 b/s
Count of elements           : 683
Stream size                 : 33.1 KiB (0%)
Title                       : Greek
Language                    : Greek
Default                     : No
Forced                      : No

Text #13
ID                          : 16
Format                      : UTF-8
Codec ID                    : S_TEXT/UTF8
Codec ID/Info               : UTF-8 Plain Text
Duration                    : 56 min 0 s
Bit rate                    : 68 b/s
Count of elements           : 683
Stream size                 : 28.1 KiB (0%)
Title                       : Hebrew
Language                    : Hebrew
Default                     : No
Forced                      : No

Text #14
ID                          : 17
Format                      : UTF-8
Codec ID                    : S_TEXT/UTF8
Codec ID/Info               : UTF-8 Plain Text
Duration                    : 56 min 0 s
Bit rate                    : 47 b/s
Count of elements           : 683
Stream size                 : 19.3 KiB (0%)
Title                       : Hungarian
Language                    : Hungarian
Default                     : No
Forced                      : No

Text #15
ID                          : 18
Format                      : UTF-8
Codec ID                    : S_TEXT/UTF8
Codec ID/Info               : UTF-8 Plain Text
Duration                    : 56 min 0 s
Bit rate                    : 48 b/s
Count of elements           : 680
Stream size                 : 19.9 KiB (0%)
Title                       : Indonesian
Language                    : Indonesian
Default                     : No
Forced                      : No

Text #16
ID                          : 19
Format                      : UTF-8
Codec ID                    : S_TEXT/UTF8
Codec ID/Info               : UTF-8 Plain Text
Duration                    : 56 min 0 s
Bit rate                    : 47 b/s
Count of elements           : 679
Stream size                 : 19.6 KiB (0%)
Title                       : Italian
Language                    : Italian
Default                     : No
Forced                      : No

Text #17
ID                          : 20
Format                      : UTF-8
Codec ID                    : S_TEXT/UTF8
Codec ID/Info               : UTF-8 Plain Text
Duration                    : 56 min 0 s
Bit rate                    : 47 b/s
Count of elements           : 641
Stream size                 : 19.5 KiB (0%)
Title                       : Japanese
Language                    : Japanese
Default                     : No
Forced                      : No

Text #18
ID                          : 21
Format                      : UTF-8
Codec ID                    : S_TEXT/UTF8
Codec ID/Info               : UTF-8 Plain Text
Duration                    : 56 min 0 s
Bit rate                    : 56 b/s
Count of elements           : 683
Stream size                 : 23.0 KiB (0%)
Title                       : Korean
Language                    : Korean
Default                     : No
Forced                      : No

Text #19
ID                          : 22
Format                      : UTF-8
Codec ID                    : S_TEXT/UTF8
Codec ID/Info               : UTF-8 Plain Text
Duration                    : 56 min 0 s
Bit rate                    : 49 b/s
Count of elements           : 682
Stream size                 : 20.3 KiB (0%)
Title                       : Malay
Language                    : Malay
Default                     : No
Forced                      : No

Text #20
ID                          : 23
Format                      : UTF-8
Codec ID                    : S_TEXT/UTF8
Codec ID/Info               : UTF-8 Plain Text
Duration                    : 56 min 0 s
Bit rate                    : 45 b/s
Count of elements           : 680
Stream size                 : 18.5 KiB (0%)
Title                       : Norwegian Bokmal
Language                    : Norwegian Bokmal
Default                     : No
Forced                      : No

Text #21
ID                          : 24
Format                      : UTF-8
Codec ID                    : S_TEXT/UTF8
Codec ID/Info               : UTF-8 Plain Text
Duration                    : 56 min 0 s
Bit rate                    : 44 b/s
Count of elements           : 682
Stream size                 : 18.4 KiB (0%)
Title                       : Polish
Language                    : Polish
Default                     : No
Forced                      : No

Text #22
ID                          : 25
Format                      : UTF-8
Codec ID                    : S_TEXT/UTF8
Codec ID/Info               : UTF-8 Plain Text
Duration                    : 56 min 0 s
Bit rate                    : 46 b/s
Count of elements           : 675
Stream size                 : 19.2 KiB (0%)
Title                       : Português
Language                    : Portuguese
Default                     : Yes
Forced                      : No

Text #23
ID                          : 26
Format                      : UTF-8
Codec ID                    : S_TEXT/UTF8
Codec ID/Info               : UTF-8 Plain Text
Duration                    : 56 min 0 s
Bit rate                    : 46 b/s
Count of elements           : 680
Stream size                 : 19.2 KiB (0%)
Title                       : Português do Brasil
Language                    : Portuguese
Default                     : No
Forced                      : No

Text #24
ID                          : 27
Format                      : UTF-8
Codec ID                    : S_TEXT/UTF8
Codec ID/Info               : UTF-8 Plain Text
Duration                    : 56 min 0 s
Bit rate                    : 54 b/s
Count of elements           : 682
Stream size                 : 22.2 KiB (0%)
Title                       : Romanian
Language                    : Romanian
Default                     : No
Forced                      : No

Text #25
ID                          : 28
Format                      : UTF-8
Codec ID                    : S_TEXT/UTF8
Codec ID/Info               : UTF-8 Plain Text
Duration                    : 56 min 0 s
Bit rate                    : 77 b/s
Count of elements           : 683
Stream size                 : 31.9 KiB (0%)
Title                       : Russian
Language                    : Russian
Default                     : No
Forced                      : No

Text #26
ID                          : 29
Format                      : UTF-8
Codec ID                    : S_TEXT/UTF8
Codec ID/Info               : UTF-8 Plain Text
Duration                    : 56 min 0 s
Bit rate                    : 48 b/s
Count of elements           : 683
Stream size                 : 19.8 KiB (0%)
Title                       : Spanish
Language                    : Spanish
Default                     : No
Forced                      : No

Text #27
ID                          : 30
Format                      : UTF-8
Codec ID                    : S_TEXT/UTF8
Codec ID/Info               : UTF-8 Plain Text
Duration                    : 56 min 0 s
Bit rate                    : 45 b/s
Count of elements           : 681
Stream size                 : 18.5 KiB (0%)
Title                       : European Spanish
Language                    : Spanish
Default                     : No
Forced                      : No

Text #28
ID                          : 31
Format                      : UTF-8
Codec ID                    : S_TEXT/UTF8
Codec ID/Info               : UTF-8 Plain Text
Duration                    : 56 min 0 s
Bit rate                    : 46 b/s
Count of elements           : 680
Stream size                 : 19.2 KiB (0%)
Title                       : Swedish
Language                    : Swedish
Default                     : No
Forced                      : No

Text #29
ID                          : 32
Format                      : UTF-8
Codec ID                    : S_TEXT/UTF8
Codec ID/Info               : UTF-8 Plain Text
Duration                    : 53 min 43 s
Bit rate                    : 129 b/s
Count of elements           : 667
Stream size                 : 51.1 KiB (0%)
Title                       : Thai
Language                    : Thai
Default                     : No
Forced                      : No

Text #30
ID                          : 33
Format                      : UTF-8
Codec ID                    : S_TEXT/UTF8
Codec ID/Info               : UTF-8 Plain Text
Duration                    : 50 min 31 s
Bit rate                    : 11 b/s
Count of elements           : 53
Stream size                 : 4.23 KiB (0%)
Title                       : Forced
Language                    : Thai
Default                     : No
Forced                      : Yes

Text #31
ID                          : 34
Format                      : UTF-8
Codec ID                    : S_TEXT/UTF8
Codec ID/Info               : UTF-8 Plain Text
Duration                    : 56 min 0 s
Bit rate                    : 48 b/s
Count of elements           : 682
Stream size                 : 20.0 KiB (0%)
Title                       : Turkish
Language                    : Turkish
Default                     : No
Forced                      : No

Text #32
ID                          : 35
Format                      : UTF-8
Codec ID                    : S_TEXT/UTF8
Codec ID/Info               : UTF-8 Plain Text
Duration                    : 56 min 0 s
Bit rate                    : 75 b/s
Count of elements           : 683
Stream size                 : 30.9 KiB (0%)
Title                       : Ukrainian
Language                    : Ukrainian
Default                     : No
Forced                      : No

Text #33
ID                          : 36
Format                      : UTF-8
Codec ID                    : S_TEXT/UTF8
Codec ID/Info               : UTF-8 Plain Text
Duration                    : 56 min 0 s
Bit rate                    : 67 b/s
Count of elements           : 683
Stream size                 : 27.8 KiB (0%)
Title                       : Vietnamese
Language                    : Vietnamese
Default                     : No
Forced                      : No

Download – [Single File]


Readme

Password & My Message

Screenshots