Fast Download Mirrors

Belfast (2021) • Movie | 1080p.BluRay.REMUX.AVC.DTS-HD.MA.7.1-PiRaTeS [26.97 GB]

Belfast Biography, Drama, History | November 12, 2021 (United States) Summary: A young boy and his working-class Belfast family experience the tumultuous late 1960s.
Countries: United KingdomLanguages: English

Buddy is a young boy on the cusp of adolescence, whose life is filled with familial love, childhood hijinks, and a blossoming romance. Yet, with his beloved hometown caught up in increasing turmoil, his family faces a momentous choice: hope the conflict will pass or leave everything they know behind for a new life.

Mirrors: GDrive [Gadrive, GDToT, Index, Sharer], MultiUp
Format: MKV
Credits: PiRaTeS

Download

General
Unique ID : 95156349730346436823233619565274173390 (0x47967242F912186DB67FCC8A75BB8FCE)
Complete name : Belfast.2021.1080p.BluRay.REMUX.AVC.DTS-HD.MA.7.1-PiRaTeS.mkv
Format : Matroska
Format version : Version 2
File size : 27.0 GiB
Duration : 1 h 37 min
Overall bit rate mode : Variable
Overall bit rate : 39.5 Mb/s
Encoded date : UTC 2022-02-23 18:02:27
Writing application : MakeMKV v1.16.5 linux(x64-release)
Writing library : libmakemkv v1.16.5 (1.3.10/1.5.2) x86_64-linux-gnu

Video
ID : 1
ID in the original source medium : 4113 (0x1011)
Format : AVC
Format/Info : Advanced Video Codec
Format profile : High@L4.1
Format settings : CABAC / 4 Ref Frames
Format settings, CABAC : Yes
Format settings, Reference frames : 4 frames
Format settings, GOP : M=3, N=12
Codec ID : V_MPEG4/ISO/AVC
Duration : 1 h 37 min
Bit rate mode : Variable
Bit rate : 35.3 Mb/s
Maximum bit rate : 38.6 Mb/s
Width : 1 920 pixels
Height : 1 080 pixels
Display aspect ratio : 16:9
Frame rate mode : Constant
Frame rate : 23.976 (24000/1001) FPS
Color space : YUV
Chroma subsampling : 4:2:0
Bit depth : 8 bits
Scan type : Progressive
Bits/(Pixel*Frame) : 0.710
Stream size : 24.1 GiB (89%)
Language : English
Default : No
Forced : No
Original source medium : Blu-ray

Audio
ID : 2
ID in the original source medium : 4352 (0x1100)
Format : DTS XLL
Format/Info : Digital Theater Systems
Commercial name : DTS-HD Master Audio
Codec ID : A_DTS
Duration : 1 h 37 min
Bit rate mode : Variable
Bit rate : 4 060 kb/s
Channel(s) : 8 channels
Channel layout : C L R LFE Lb Rb Lss Rss
Sampling rate : 48.0 kHz
Frame rate : 93.750 FPS (512 SPF)
Bit depth : 24 bits
Compression mode : Lossless
Stream size : 2.77 GiB (10%)
Language : English
Default : Yes
Forced : No
Original source medium : Blu-ray

Text #1
ID : 3
ID in the original source medium : 4608 (0x1200)
Format : PGS
Codec ID : S_HDMV/PGS
Codec ID/Info : Picture based subtitle format used on BDs/HD-DVDs
Duration : 1 h 36 min
Bit rate : 61.4 kb/s
Count of elements : 3302
Stream size : 42.4 MiB (0%)
Language : English
Default : No
Forced : No
Original source medium : Blu-ray

Text #2
ID : 5
ID in the original source medium : 4609 (0x1201)
Format : PGS
Codec ID : S_HDMV/PGS
Codec ID/Info : Picture based subtitle format used on BDs/HD-DVDs
Duration : 1 h 34 min
Bit rate : 44.5 kb/s
Count of elements : 2788
Stream size : 30.2 MiB (0%)
Language : Spanish
Default : No
Forced : No
Original source medium : Blu-ray

Text #3
ID : 6
ID in the original source medium : 4610 (0x1202)
Format : PGS
Codec ID : S_HDMV/PGS
Codec ID/Info : Picture based subtitle format used on BDs/HD-DVDs
Duration : 1 h 36 min
Bit rate : 43.6 kb/s
Count of elements : 2524
Stream size : 30.1 MiB (0%)
Language : French
Default : No
Forced : No
Original source medium : Blu-ray

Menu
00:00:00.000 : en:Chapter 01
00:07:27.071 : en:Chapter 02
00:12:05.933 : en:Chapter 03
00:15:37.436 : en:Chapter 04
00:22:17.794 : en:Chapter 05
00:24:39.853 : en:Chapter 06
00:29:29.476 : en:Chapter 07
00:35:33.005 : en:Chapter 08
00:39:21.567 : en:Chapter 09
00:45:52.249 : en:Chapter 10
00:51:33.548 : en:Chapter 11
00:54:07.285 : en:Chapter 12
01:00:25.663 : en:Chapter 13
01:06:54.301 : en:Chapter 14
01:12:05.612 : en:Chapter 15
01:19:18.336 : en:Chapter 16
01:21:53.408 : en:Chapter 17
01:26:07.245 : en:Chapter 18
01:28:59.667 : en:Chapter 19
01:33:05.705 : en:Chapter 20

Readme/Password

Password & My Message