Fast Download Mirrors

Big Fish (2003) • Movie | BluRay.1080p.x265.10bit.2Audios.MNHD-FRDS

Big Fish (2003) • Movie
Big Fish 125min | Adventure, Drama, Fantasy, Romance | January 9, 2004 (United States) Summary: A frustrated son tries to determine the fact from fiction in his dying father's life.
Countries: United StatesLanguages: English, Cantonese

A frustrated son tries to determine the fact from fiction in his dying father’s life.

Mirrors: MirrorAce, MultiUp, Gdrive[GDTOT, Sharer]
Format: MKV
Credits: FRDS MNHD TEAM

Download

Big.Fish.2003.BluRay.1080p.x265.10bit.2Audios.MNHD-FRDS

RELEASE DATE....: 2018/02/05            
SOURCE .........: Big Fish 2003 EUR Bluray 1080p MPEG-2 TrueHD 5.1
                                                                        
RUNTiME.........: 2:05:09 (h/min/s)
SUBTiTLES.......: CHS/CHT/ENG/CHS&ENG
FilE SiZE.......: 6.16 GiB                       
IMDB URL........: http://www.imdb.com/title/tt0319061/
IMDB RATING.....: 8.0/10 from 374,233 users

ViDEO BiTRATE...: 5900kbps  Mian10@L4
RESOLUTiON......: 1920 X 1044
ASPECT RATiO....: 1.85 : 1
FRAME RATE......: 23.976 fps
AUDiO...........: English    AC3-5.1 640kbps
AUDiO...........: Putonghua  AC3-5.1 448kbps

-= FRDS MNHD TEAM =-
General
Unique ID                                : 104427685758701493395684015058587175066 (0x4E900A6B7BE1C92F695A98576A87489A)
Complete name                            : Big.Fish.2003.BluRay.1080p.x265.10bit.2Audios.MNHD-FRDS.mkv
Format                                   : Matroska
Format version                           : Version 4
File size                                : 6.16 GiB
Duration                                 : 2 h 5 min
Overall bit rate                         : 7 047 kb/s
Encoded date                             : UTC 2018-02-05 00:38:46
Writing application                      : mkvmerge v20.0.0 ('I Am The Sun') 64-bit
Writing library                          : libebml v1.3.5 + libmatroska v1.4.8

Video
ID                                       : 1
Format                                   : HEVC
Format/Info                              : High Efficiency Video Coding
Format profile                           : Main 10@L4@High
Codec ID                                 : V_MPEGH/ISO/HEVC
Duration                                 : 2 h 5 min
Bit rate                                 : 5 900 kb/s
Width                                    : 1 920 pixels
Height                                   : 1 044 pixels
Display aspect ratio                     : 1.85:1
Frame rate mode                          : Constant
Frame rate                               : 23.976 (24000/1001) FPS
Color space                              : YUV
Chroma subsampling                       : 4:2:0
Bit depth                                : 10 bits
Bits/(Pixel*Frame)                       : 0.123
Stream size                              : 5.16 GiB (84%)
Title                                    : 视频
Default                                  : Yes
Forced                                   : No
Color range                              : Limited
Color primaries                          : BT.709

Audio #1
ID                                       : 2
Format                                   : AC-3
Format/Info                              : Audio Coding 3
Commercial name                          : Dolby Digital
Codec ID                                 : A_AC3
Duration                                 : 2 h 5 min
Bit rate mode                            : Constant
Bit rate                                 : 640 kb/s
Channel(s)                               : 6 channels
Channel layout                           : L R C LFE Ls Rs
Sampling rate                            : 48.0 kHz
Frame rate                               : 31.250 FPS (1536 SPF)
Compression mode                         : Lossy
Stream size                              : 573 MiB (9%)
Title                                    : 英语
Language                                 : English
Service kind                             : Complete Main
Default                                  : Yes
Forced                                   : Yes

Audio #2
ID                                       : 3
Format                                   : AC-3
Format/Info                              : Audio Coding 3
Commercial name                          : Dolby Digital
Codec ID                                 : A_AC3
Duration                                 : 2 h 5 min
Bit rate mode                            : Constant
Bit rate                                 : 448 kb/s
Channel(s)                               : 6 channels
Channel layout                           : L R C LFE Ls Rs
Sampling rate                            : 48.0 kHz
Frame rate                               : 31.250 FPS (1536 SPF)
Compression mode                         : Lossy
Stream size                              : 401 MiB (6%)
Title                                    : 国语
Language                                 : Chinese
Service kind                             : Complete Main
Default                                  : No
Forced                                   : No

Text #1
ID                                       : 4
Format                                   : PGS
Muxing mode                              : zlib
Codec ID                                 : S_HDMV/PGS
Codec ID/Info                            : Picture based subtitle format used on BDs/HD-DVDs
Duration                                 : 1 h 59 min
Bit rate                                 : 20.3 kb/s
Count of elements                        : 2162
Stream size                              : 17.3 MiB (0%)
Title                                    : 简中
Language                                 : Chinese
Default                                  : No
Forced                                   : No

Text #2
ID                                       : 5
Format                                   : PGS
Muxing mode                              : zlib
Codec ID                                 : S_HDMV/PGS
Codec ID/Info                            : Picture based subtitle format used on BDs/HD-DVDs
Duration                                 : 1 h 59 min
Bit rate                                 : 21.2 kb/s
Count of elements                        : 2162
Stream size                              : 18.0 MiB (0%)
Title                                    : 繁中
Language                                 : Chinese
Default                                  : No
Forced                                   : No

Text #3
ID                                       : 6
Format                                   : PGS
Muxing mode                              : zlib
Codec ID                                 : S_HDMV/PGS
Codec ID/Info                            : Picture based subtitle format used on BDs/HD-DVDs
Duration                                 : 1 h 59 min
Bit rate                                 : 40.6 kb/s
Count of elements                        : 2323
Stream size                              : 34.6 MiB (1%)
Title                                    : 简英双语
Default                                  : Yes
Forced                                   : No

Text #4
ID                                       : 7
Format                                   : PGS
Muxing mode                              : zlib
Codec ID                                 : S_HDMV/PGS
Codec ID/Info                            : Picture based subtitle format used on BDs/HD-DVDs
Duration                                 : 1 h 59 min
Bit rate                                 : 48.7 kb/s
Count of elements                        : 2288
Stream size                              : 41.5 MiB (1%)
Title                                    : 英语
Language                                 : English
Default                                  : No
Forced                                   : No

Menu
00:00:00.000                             : en:Chapter 01
00:08:47.986                             : en:Chapter 02
00:15:03.611                             : en:Chapter 03
00:22:47.408                             : en:Chapter 04
00:30:24.072                             : en:Chapter 05
00:42:43.060                             : en:Chapter 06
00:49:50.696                             : en:Chapter 07
00:56:46.653                             : en:Chapter 08
01:03:17.919                             : en:Chapter 09
01:08:36.779                             : en:Chapter 10
01:22:07.548                             : en:Chapter 11
01:30:10.947                             : en:Chapter 12
01:36:26.906                             : en:Chapter 13
01:45:12.723                             : en:Chapter 14
01:48:58.657                             : en:Chapter 15
01:56:41.077                             : en:Chapter 16


Readme

Password & My Message

Screenshots
image
image
image