Fast Download Mirrors

Billions (2016-) • TVSeries | S06E05.Billions.Rock.of.Eye.1080p.AMZN.WEB-DL.DDP5.1.H.264-NTb [2.32 GB]

Billions Drama | January 1, 2016 (United States) Summary: New money means no mercy as Mike Prince takes the Axe Capital throne. Chuck Rhoades is convinced no one should have that much wealth - or power. As all the players seek out new alliances onl... Read all
Countries: United StatesLanguages: English

New money means no mercy as Mike Prince takes the Axe Capital throne. Chuck Rhoades is convinced no one should have that much wealth – or power. As all the players seek out new alliances only one thing’s for certain – wealth means war.

Mirrors: GDrive [Gadrive, GDToT, Index, Sharer], MultiUp
Format: MKV
Credits: NTb
Seasons: Ongoing

Download

General
Unique ID                                : 83602862595640359607612089223075995320 (0x3EE5535DDC3865DD2AAA9A7618C61EB8)
Complete name                            : Billions.S06E05.Billions.Rock.of.Eye.1080p.AMZN.WEB-DL.DDP5.1.H.264-NTb.mkv
Format                                   : Matroska
Format version                           : Version 4
File size                                : 2.32 GiB
Duration                                 : 59 min 3 s
Overall bit rate                         : 5 631 kb/s
Writing application                      : mkvmerge v58.0.0 ('Supper's Ready') 64-bit
Writing library                          : libebml v1.4.2 + libmatroska v1.6.4

Video
ID                                       : 1
Format                                   : AVC
Format/Info                              : Advanced Video Codec
Format profile                           : High@L4
Format settings                          : CABAC / 4 Ref Frames
Format settings, CABAC                   : Yes
Format settings, Reference frames        : 4 frames
Codec ID                                 : V_MPEG4/ISO/AVC
Duration                                 : 59 min 3 s
Bit rate mode                            : Constant
Bit rate                                 : 4 988 kb/s
Nominal bit rate                         : 10 000 kb/s
Width                                    : 1 920 pixels
Height                                   : 1 080 pixels
Display aspect ratio                     : 16:9
Frame rate mode                          : Constant
Frame rate                               : 23.976 (24000/1001) FPS
Color space                              : YUV
Chroma subsampling                       : 4:2:0
Bit depth                                : 8 bits
Scan type                                : Progressive
Bits/(Pixel*Frame)                       : 0.100
Stream size                              : 2.06 GiB (89%)
Default                                  : Yes
Forced                                   : No
Color range                              : Limited
Color primaries                          : BT.709
Transfer characteristics                 : BT.709
Matrix coefficients                      : BT.709

Audio
ID                                       : 2
Format                                   : E-AC-3
Format/Info                              : Enhanced AC-3
Commercial name                          : Dolby Digital Plus
Codec ID                                 : A_EAC3
Duration                                 : 59 min 3 s
Bit rate mode                            : Constant
Bit rate                                 : 640 kb/s
Channel(s)                               : 6 channels
Channel layout                           : L R C LFE Ls Rs
Sampling rate                            : 48.0 kHz
Frame rate                               : 31.250 FPS (1536 SPF)
Compression mode                         : Lossy
Delay relative to video                  : 18 ms
Stream size                              : 270 MiB (11%)
Language                                 : English
Service kind                             : Complete Main
Default                                  : Yes
Forced                                   : No

Text
ID                                       : 3
Format                                   : UTF-8
Codec ID                                 : S_TEXT/UTF8
Codec ID/Info                            : UTF-8 Plain Text
Duration                                 : 58 min 21 s
Bit rate                                 : 151 b/s
Count of elements                        : 1263
Stream size                              : 64.8 KiB (0%)
Language                                 : English
Default                                  : No
Forced                                   : No

Menu
00:00:00.000                             : en:Previously On
00:01:01.970                             : en:Opening Credits
00:01:19.970                             : en:Scene 3
00:08:29.970                             : en:Scene 4
00:17:03.970                             : en:Scene 5
00:25:27.970                             : en:Scene 6
00:32:30.970                             : en:Scene 7
00:39:14.970                             : en:Scene 8
00:47:41.970                             : en:Scene 9
00:58:02.970                             : en:Scene 10

Readme/Password

Password & My Message