Fast Download Mirrors

Black Widow (2021) • Movie | BluRay

Black Widow (2021) • Movie
Black Widow (2021) 133min | Action, Adventure, Sci-Fi | 9 July 2021 (USA)
Summary: A film about Natasha Romanoff in her quests between the films Civil War and Infinity War.
Countries: USALanguages: English
Mirrors: 1fichier, GDrive Index, Gdrive[GDTOT, Sharer], MultiUp, MirrorAce  
Format: MKV 
Credits: Qxr, Vyndros, TombDoc [BluRay]

Download [BluRay]

MediaInfo
General : Matroska / 9.68 GiB / 2 h 13 min / 10.4 Mb/s

Video : HEVC / Main 10@L5@Main / 9 516 kb/s / 3 840 pixels / 1 608 pixels / 2.40:1 / 23.976 (24000/1001) FPS / *Default / BT.2020
Writing library : x265M - 3.4+35-772bb4c84:[Windows][GCC 10.2.0][64 bit] 10bit
Encoding settings : cpuid=1111039 / frame-threads=2 / numa-pools=4,0 / wpp / no-pmode / no-pme / no-psnr / no-ssim / log-level=2 / input-csp=1 / input-res=3840x1608 / interlace=0 / total-frames=192450 / level-idc=0 / high-tier=1 / uhd-bd=0 / ref=4 / no-allow-non-conformance / repeat-headers / annexb / aud / no-hrd / info / hash=0 / no-temporal-layers / open-gop / min-keyint=23 / keyint=250 / gop-lookahead=0 / bframes=8 / b-adapt=2 / b-pyramid / bframe-bias=0 / rc-lookahead=25 / lookahead-slices=4 / scenecut=40 / hist-scenecut=0 / radl=0 / no-splice / no-intra-refresh / ctu=64 / min-cu-size=8 / rect / no-amp / max-tu-size=32 / tu-inter-depth=1 / tu-intra-depth=1 / limit-tu=0 / rdoq-level=2 / dynamic-rd=0.00 / no-ssim-rd / signhide / no-tskip / nr-intra=0 / nr-inter=0 / no-constrained-intra / strong-intra-smoothing / max-merge=3 / limit-refs=3 / limit-modes / me=3 / subme=3 / merange=57 / temporal-mvp / no-frame-dup / no-hme / weightp / no-weightb / no-analyze-src-pics / deblock=0:0 / no-sao / no-sao-non-deblock / rd=4 / selective-sao=0 / no-early-skip / rskip / no-fast-intra / no-tskip-fast / no-cu-lossless / no-b-intra / no-splitrd-skip / rdpenalty=0 / psy-rd=2.00 / psy-rdoq=1.00 / no-rd-refine / no-lossless / cbqpoffs=0 / crqpoffs=0 / rc=crf / crf=15.0 / qcomp=0.60 / qpstep=4 / stats-write=0 / stats-read=0 / ipratio=1.40 / pbratio=1.30 / aq-mode=2 / aq-strength=1.00 / cutree / zone-count=0 / no-strict-cbr / qg-size=32 / no-rc-grain / qpmax=69 / qpmin=0 / no-const-vbv / sar=0 / overscan=0 / videoformat=5 / range=0 / colorprim=9 / transfer=16 / colormatrix=9 / chromaloc=0 / display-window=0 / master-display=G(13250,34500)B(7500,3000)R(34000,16000)WP(15635,16450)L(10000000,50) / cll=0,0 / min-luma=0 / max-luma=1023 / log2-max-poc-lsb=8 / vui-timing-info / vui-hrd-info / slices=1 / no-opt-qp-pps / no-opt-ref-list-length-pps / no-multi-pass-opt-rps / scenecut-bias=0.05 / hist-threshold=0.03 / no-opt-cu-delta-qp / aq-motion / hdr10 / hdr10-opt / no-dhdr10-opt / no-idr-recovery-sei / analysis-reuse-level=0 / analysis-save-reuse-level=0 / analysis-load-reuse-level=0 / scale-factor=0 / refine-intra=0 / refine-inter=0 / refine-mv=1 / refine-ctu-distortion=0 / no-limit-sao / ctu-info=0 / no-lowpass-dct / refine-analysis-type=0 / copy-pic=1 / max-ausize-factor=1.0 / no-dynamic-refine / no-single-sei / no-hevc-aq / no-svt / no-field / qp-adaptation-range=1.00 / scenecut-aware-qp=0conformance-window-offsets / right=0 / bottom=0 / decoder-max-rate=0 / no-vbv-live-multi-pass

Audio : AAC LC / 831 kb/s / 8 channels / English / *Default

Text #1 : VobSub / 8 947 b/s / English
Text #2 : VobSub / 194 b/s / Forced / English / *Forced
Text #3 : VobSub / 7 330 b/s / French
Text #4 : VobSub / 6 943 b/s / Spanish

Menu
00:00:00.000 : en:Chapter 01
00:04:55.169 : en:Chapter 02
00:13:10.080 : en:Chapter 03
00:16:24.566 : en:Chapter 04
00:18:41.870 : en:Chapter 05
00:21:41.633 : en:Chapter 06
00:25:40.747 : en:Chapter 07
00:30:06.346 : en:Chapter 08
00:39:05.301 : en:Chapter 09
00:44:46.058 : en:Chapter 10
00:53:25.994 : en:Chapter 11
01:01:38.152 : en:Chapter 12
01:07:46.270 : en:Chapter 13
01:11:40.629 : en:Chapter 14
01:17:48.747 : en:Chapter 15
01:27:19.192 : en:Chapter 16
01:33:33.441 : en:Chapter 17
01:37:37.476 : en:Chapter 18
01:41:18.655 : en:Chapter 19
01:45:37.539 : en:Chapter 20
01:51:41.653 : en:Chapter 21
01:57:09.105 : en:Chapter 22
02:01:59.562 : en:Chapter 23
02:04:25.458 : en:Chapter 24
Screenshots



MediaInfo/Files
General : Matroska / 5.83 GiB / 2 h 13 min / 6 241 kb/s

Video : HEVC / Main 10@L4@Main / 5 640 kb/s / 1 920 pixels / 804 pixels / 2.40:1 / 23.976 (24000/1001) FPS / *Default
Writing library : x265M - 3.4+35-772bb4c84:[Windows][GCC 10.2.0][64 bit] 10bit
Encoding settings : cpuid=1111039 / frame-threads=3 / numa-pools=8 / wpp / no-pmode / no-pme / no-psnr / no-ssim / log-level=2 / input-csp=1 / input-res=1920x804 / interlace=0 / total-frames=192450 / level-idc=0 / high-tier=1 / uhd-bd=0 / ref=4 / no-allow-non-conformance / no-repeat-headers / annexb / no-aud / no-hrd / info / hash=0 / no-temporal-layers / open-gop / min-keyint=23 / keyint=250 / gop-lookahead=0 / bframes=8 / b-adapt=2 / b-pyramid / bframe-bias=0 / rc-lookahead=25 / lookahead-slices=4 / scenecut=40 / hist-scenecut=0 / radl=0 / no-splice / no-intra-refresh / ctu=64 / min-cu-size=8 / rect / no-amp / max-tu-size=32 / tu-inter-depth=1 / tu-intra-depth=1 / limit-tu=0 / rdoq-level=2 / dynamic-rd=0.00 / no-ssim-rd / signhide / no-tskip / nr-intra=0 / nr-inter=0 / no-constrained-intra / strong-intra-smoothing / max-merge=3 / limit-refs=3 / limit-modes / me=3 / subme=3 / merange=57 / temporal-mvp / no-frame-dup / no-hme / weightp / no-weightb / no-analyze-src-pics / deblock=0:0 / no-sao / no-sao-non-deblock / rd=4 / selective-sao=0 / no-early-skip / rskip / no-fast-intra / no-tskip-fast / no-cu-lossless / no-b-intra / no-splitrd-skip / rdpenalty=0 / psy-rd=2.00 / psy-rdoq=1.00 / no-rd-refine / no-lossless / cbqpoffs=0 / crqpoffs=0 / rc=crf / crf=18.0 / qcomp=0.60 / qpstep=4 / stats-write=0 / stats-read=0 / ipratio=1.40 / pbratio=1.30 / aq-mode=3 / aq-strength=1.00 / cutree / zone-count=0 / no-strict-cbr / qg-size=32 / no-rc-grain / qpmax=69 / qpmin=0 / no-const-vbv / sar=0 / overscan=0 / videoformat=5 / range=0 / colorprim=2 / transfer=2 / colormatrix=2 / chromaloc=0 / display-window=0 / cll=0,0 / min-luma=0 / max-luma=1023 / log2-max-poc-lsb=8 / vui-timing-info / vui-hrd-info / slices=1 / no-opt-qp-pps / no-opt-ref-list-length-pps / no-multi-pass-opt-rps / scenecut-bias=0.05 / hist-threshold=0.03 / no-opt-cu-delta-qp / aq-motion / no-hdr10 / no-hdr10-opt / no-dhdr10-opt / no-idr-recovery-sei / analysis-reuse-level=0 / analysis-save-reuse-level=0 / analysis-load-reuse-level=0 / scale-factor=0 / refine-intra=0 / refine-inter=0 / refine-mv=1 / refine-ctu-distortion=0 / no-limit-sao / ctu-info=0 / no-lowpass-dct / refine-analysis-type=0 / copy-pic=1 / max-ausize-factor=1.0 / no-dynamic-refine / no-single-sei / no-hevc-aq / no-svt / no-field / qp-adaptation-range=1.00 / scenecut-aware-qp=0conformance-window-offsets / right=0 / bottom=0 / decoder-max-rate=0 / no-vbv-live-multi-pass

Audio : AAC LC / 576 kb/s / 8 channels / English / *Default

Text #1 : VobSub / 8 934 b/s / English
Text #2 : VobSub / 193 b/s / Forced / English / *Forced
Text #3 : VobSub / 7 318 b/s / French
Text #4 : VobSub / 6 932 b/s / Spanish

Menu
00:00:00.000 : en:Chapter 01
00:04:55.169 : en:Chapter 02
00:13:10.080 : en:Chapter 03
00:16:24.566 : en:Chapter 04
00:18:41.870 : en:Chapter 05
00:21:41.633 : en:Chapter 06
00:25:40.789 : en:Chapter 07
00:30:06.346 : en:Chapter 08
00:39:05.468 : en:Chapter 09
00:44:46.350 : en:Chapter 10
00:53:25.994 : en:Chapter 11
01:01:38.152 : en:Chapter 12
01:07:46.270 : en:Chapter 13
01:11:40.671 : en:Chapter 14
01:17:48.789 : en:Chapter 15
01:27:19.234 : en:Chapter 16
01:33:33.441 : en:Chapter 17
01:37:37.476 : en:Chapter 18
01:41:18.655 : en:Chapter 19
01:45:37.873 : en:Chapter 20
01:51:41.653 : en:Chapter 21
01:57:09.105 : en:Chapter 22
02:01:59.687 : en:Chapter 23
02:04:25.458 : en:Chapter 24
Black Widow (2021) (1080p BluRay x265 HEVC 10bit AAC 7.1 Tigole)
Black Widow (2021) (1080p BluRay x265 10bit Tigole).mkv (5.8 GB)
Featurettes
Bloopers.mkv (22.8 MB)
Deleted Scenes.mkv (127.6 MB)
Filmmaker Introduction.mkv (5.8 MB)
Go Big If You're Going Home.mkv (164.9 MB)
Sisters Gonna Work It Out.mkv (79.6 MB)
Screenshots



Black Widow (2021) 1080p 10bit Bluray x265 HEVC [Org DD 5.1 Hindi + DD 5.1 English] MSubs ~ TombDoc – 5.14GB
MediaInfo
Format                                   : Matroska
Format version                           : Version 4
File size                                : 5.14 GiB
Duration                                 : 2 h 13 min
Overall bit rate                         : 5 502 kb/s

Video
ID                                       : 1
Format                                   : HEVC
Format/Info                              : High Efficiency Video Coding
Format profile                           : Main 10@L4@Main
Codec ID                                 : V_MPEGH/ISO/HEVC
Duration                                 : 2 h 13 min
Bit rate                                 : 4 650 kb/s
Width                                    : 1 920 pixels
Height                                   : 804 pixels
Display aspect ratio                     : 2.40:1
Frame rate mode                          : Variable
Frame rate                               : 23.976 (24000/1001) FPS
Color space                              : YUV
Chroma subsampling                       : 4:2:0
Bit depth                                : 10 bits
Bits/(Pixel*Frame)                       : 0.126
Stream size                              : 4.35 GiB (85%)
Writing library                          : x265 3.5+12+14-106329cbd:[Windows][GCC 10.3.0][64 bit] 10bit
Encoding settings                        : cpuid=1111039 / frame-threads=4 / numa-pools=16 / wpp / no-pmode / no-pme / no-psnr / no-ssim / log-level=2 / input-csp=1 / input-res=1920x804 / interlace=0 / total-frames=192450 / level-idc=0 / high-tier=1 / uhd-bd=0 / ref=5 / no-allow-non-conformance / no-repeat-headers / annexb / no-aud / no-eob / no-eos / no-hrd / info / hash=0 / no-temporal-layers / open-gop / min-keyint=23 / keyint=250 / gop-lookahead=0 / bframes=8 / b-adapt=2 / b-pyramid / bframe-bias=0 / rc-lookahead=100 / lookahead-slices=4 / scenecut=40 / no-hist-scenecut / radl=0 / no-splice / no-intra-refresh / ctu=64 / min-cu-size=8 / rect / amp / max-tu-size=32 / tu-inter-depth=2 / tu-intra-depth=2 / limit-tu=1 / rdoq-level=2 / dynamic-rd=0.00 / ssim-rd / signhide / no-tskip / nr-intra=0 / nr-inter=0 / no-constrained-intra / strong-intra-smoothing / max-merge=5 / limit-refs=3 / limit-modes / me=3 / subme=6 / merange=57 / temporal-mvp / no-frame-dup / no-hme / weightp / no-weightb / no-analyze-src-pics / deblock=0:0 / sao / no-sao-non-deblock / rd=4 / selective-sao=4 / no-early-skip / rskip / no-fast-intra / no-tskip-fast / no-cu-lossless / no-b-intra / no-splitrd-skip / rdpenalty=0 / psy-rd=0.00 / psy-rdoq=2.00 / no-rd-refine / no-lossless / cbqpoffs=0 / crqpoffs=0 / rc=abr / bitrate=4650 / qcomp=0.60 / qpstep=4 / stats-write=0 / stats-read=2 / cplxblur=20.0 / qblur=0.5 / ipratio=1.40 / pbratio=1.30 / aq-mode=4 / aq-strength=1.00 / cutree / zone-count=0 / no-strict-cbr / qg-size=32 / rc-grain / qpmax=69 / qpmin=0 / no-const-vbv / sar=0 / overscan=0 / videoformat=5 / range=0 / colorprim=2 / transfer=2 / colormatrix=2 / chromaloc=0 / display-window=0 / cll=0,0 / min-luma=0 / max-luma=1023 / log2-max-poc-lsb=8 / vui-timing-info / vui-hrd-info / slices=1 / no-opt-qp-pps / no-opt-ref-list-length-pps / no-multi-pass-opt-rps / scenecut-bias=0.05 / hist-threshold=0.03 / no-opt-cu-delta-qp / no-aq-motion / no-hdr10 / no-hdr10-opt / no-dhdr10-opt / no-idr-recovery-sei / analysis-reuse-level=0 / analysis-save-reuse-level=0 / analysis-load-reuse-level=0 / scale-factor=0 / refine-intra=0 / refine-inter=0 / refine-mv=1 / refine-ctu-distortion=0 / no-limit-sao / ctu-info=0 / no-lowpass-dct / refine-analysis-type=0 / copy-pic=1 / max-ausize-factor=1.0 / no-dynamic-refine / no-single-sei / hevc-aq / no-svt / no-field / qp-adaptation-range=1.00 / scenecut-aware-qp=0 / conformance-window-right-offset=0 / conformance-window-bottom-offset=0 / decoder-max-rate=0 / no-vbv-live-multi-pass
Default                                  : Yes
Forced                                   : No

Audio #1
ID                                       : 2
Format                                   : E-AC-3
Format/Info                              : Enhanced AC-3
Commercial name                          : Dolby Digital Plus
Codec ID                                 : A_EAC3
Duration                                 : 2 h 13 min
Bit rate mode                            : Constant
Bit rate                                 : 192 kb/s
Channel(s)                               : 6 channels
Channel layout                           : L R C LFE Ls Rs
Sampling rate                            : 48.0 kHz
Frame rate                               : 31.250 FPS (1536 SPF)
Compression mode                         : Lossy
Delay relative to video                  : 18 ms
Stream size                              : 184 MiB (3%)
Title                                    : Org DSNP DD+ 5.1 192Kbps ~ TombDoc
Language                                 : Hindi
Service kind                             : Complete Main
Default                                  : Yes
Forced                                   : Yes

Audio #2
ID                                       : 3
Format                                   : E-AC-3
Format/Info                              : Enhanced AC-3
Commercial name                          : Dolby Digital Plus
Codec ID                                 : A_EAC3
Duration                                 : 2 h 13 min
Bit rate mode                            : Constant
Bit rate                                 : 640 kb/s
Channel(s)                               : 6 channels
Channel layout                           : L R C LFE Ls Rs
Sampling rate                            : 48.0 kHz
Frame rate                               : 31.250 FPS (1536 SPF)
Compression mode                         : Lossy
Stream size                              : 612 MiB (12%)
Title                                    : DD+ 5.1 English
Language                                 : English
Service kind                             : Complete Main
Default                                  : No
Forced                                   : No

Text #1
ID                                       : 4
Format                                   : PGS
Muxing mode                              : zlib
Codec ID                                 : S_HDMV/PGS
Codec ID/Info                            : Picture based subtitle format used on BDs/HD-DVDs
Duration                                 : 2 h 12 min
Bit rate                                 : 17.2 kb/s
Count of elements                        : 2616
Stream size                              : 16.3 MiB (0%)
Title                                    : Hindi BD-PGS
Language                                 : Hindi
Default                                  : No
Forced                                   : No

Text #2
ID                                       : 5
Format                                   : PGS
Muxing mode                              : zlib
Codec ID                                 : S_HDMV/PGS
Codec ID/Info                            : Picture based subtitle format used on BDs/HD-DVDs
Duration                                 : 2 h 13 min
Bit rate                                 : 32.6 kb/s
Count of elements                        : 3294
Stream size                              : 31.1 MiB (1%)
Title                                    : Eng BD-PGS-SDH
Language                                 : English
Default                                  : No
Forced                                   : No

Text #3
ID                                       : 6
Format                                   : PGS
Muxing mode                              : zlib
Codec ID                                 : S_HDMV/PGS
Codec ID/Info                            : Picture based subtitle format used on BDs/HD-DVDs
Duration                                 : 1 h 49 min
Bit rate                                 : 714 b/s
Count of elements                        : 74
Stream size                              : 573 KiB (0%)
Title                                    : Eng BD-PGS {Forced}
Language                                 : English
Default                                  : Yes
Forced                                   : Yes

Menu
00:00:00.000                             : Chapter 1
00:04:55.295                             : Chapter 2
00:13:10.206                             : Chapter 3
00:16:24.692                             : Chapter 4
00:18:41.995                             : Chapter 5
00:21:41.758                             : Chapter 6
00:25:40.914                             : Chapter 7
00:30:06.471                             : Chapter 8
00:39:05.593                             : Chapter 9
00:44:46.475                             : Chapter 10
00:53:26.119                             : Chapter 11
01:01:38.278                             : Chapter 12
01:07:46.395                             : Chapter 13
01:11:40.796                             : Chapter 14
01:17:48.914                             : Chapter 15
01:27:19.359                             : Chapter 16
01:33:33.566                             : Chapter 17
01:37:37.601                             : Chapter 18
01:41:18.781                             : Chapter 19
01:45:37.998                             : Chapter 20
01:51:41.778                             : Chapter 21
01:57:09.230                             : Chapter 22
02:01:59.812                             : Chapter 23
02:04:25.583                             : Chapter 24
Screenshots

MediaInfo
General
Format : Matroska
Format version : Version 4 / Version 2
File size : 4.98 GiB
Duration : 2 h 13 min
Overall bit rate : 5 334 kb/s
Movie name : Black Widow (2021)
Encoded date : UTC 2021-09-08 14:27:35
Writing application : mkvmerge v59.0.0 ('Shining Star') 64-bit
Writing library : libebml v1.4.2 + libmatroska v1.6.4

Video
ID : 1
Format : HEVC
Format/Info : High Efficiency Video Coding
Format profile : Main 10@L4@Main
Codec ID : V_MPEGH/ISO/HEVC
Duration : 2 h 13 min
Bit rate : 4 717 kb/s
Width : 1 920 pixels
Height : 804 pixels
Display aspect ratio : 2.40:1
Frame rate mode : Constant
Frame rate : 23.976 (24000/1001) FPS
Color space : YUV
Chroma subsampling : 4:2:0
Bit depth : 10 bits
Bits/(Pixel*Frame) : 0.127
Stream size : 4.41 GiB (88%)
Writing library : x265 3.5+12+14-106329cbd:[Windows][GCC 10.3.0][64 bit] 10bit
Encoding settings : cpuid=1111039 / frame-threads=3 / numa-pools=12 / wpp / no-pmode / no-pme / no-psnr / ssim / log-level=2 / input-csp=1 / input-res=1920x804 / interlace=0 / total-frames=192450 / level-idc=0 / high-tier=1 / uhd-bd=0 / ref=3 / no-allow-non-conformance / no-repeat-headers / annexb / no-aud / no-eob / no-eos / no-hrd / info / hash=0 / no-temporal-layers / open-gop / min-keyint=23 / keyint=250 / gop-lookahead=0 / bframes=8 / b-adapt=2 / b-pyramid / bframe-bias=0 / rc-lookahead=80 / lookahead-slices=5 / scenecut=40 / no-hist-scenecut / radl=0 / no-splice / no-intra-refresh / ctu=64 / min-cu-size=8 / no-rect / no-amp / max-tu-size=32 / tu-inter-depth=1 / tu-intra-depth=1 / limit-tu=0 / rdoq-level=0 / dynamic-rd=0.00 / no-ssim-rd / signhide / no-tskip / nr-intra=0 / nr-inter=0 / no-constrained-intra / no-strong-intra-smoothing / max-merge=5 / limit-refs=3 / no-limit-modes / me=3 / subme=5 / merange=57 / temporal-mvp / no-frame-dup / no-hme / weightp / no-weightb / no-analyze-src-pics / deblock=0:0 / sao / no-sao-non-deblock / rd=3 / selective-sao=4 / early-skip / no-rskip / no-fast-intra / no-tskip-fast / no-cu-lossless / b-intra / no-splitrd-skip / rdpenalty=0 / psy-rd=2.00 / psy-rdoq=0.00 / no-rd-refine / no-lossless / cbqpoffs=0 / crqpoffs=0 / rc=crf / crf=18.0 / qcomp=0.60 / qpstep=4 / stats-write=0 / stats-read=0 / ipratio=1.40 / pbratio=1.30 / aq-mode=3 / aq-strength=1.00 / cutree / zone-count=0 / no-strict-cbr / qg-size=32 / no-rc-grain / qpmax=69 / qpmin=0 / no-const-vbv / sar=0 / overscan=0 / videoformat=5 / range=0 / colorprim=2 / transfer=2 / colormatrix=2 / chromaloc=0 / display-window=0 / cll=0,0 / min-luma=0 / max-luma=1023 / log2-max-poc-lsb=8 / vui-timing-info / vui-hrd-info / slices=1 / no-opt-qp-pps / no-opt-ref-list-length-pps / no-multi-pass-opt-rps / scenecut-bias=0.05 / hist-threshold=0.03 / no-opt-cu-delta-qp / no-aq-motion / no-hdr10 / no-hdr10-opt / no-dhdr10-opt / no-idr-recovery-sei / analysis-reuse-level=0 / analysis-save-reuse-level=0 / analysis-load-reuse-level=0 / scale-factor=0 / refine-intra=0 / refine-inter=0 / refine-mv=1 / refine-ctu-distortion=0 / no-limit-sao / ctu-info=0 / no-lowpass-dct / refine-analysis-type=0 / copy-pic=1 / max-ausize-factor=1.0 / no-dynamic-refine / no-single-sei / no-hevc-aq / no-svt / no-field / qp-adaptation-range=1.00 / scenecut-aware-qp=0 / conformance-window-right-offset=0 / conformance-window-bottom-offset=0 / decoder-max-rate=0 / no-vbv-live-multi-pass
Default : Yes
Forced : No

Audio
ID : 2
Format : AAC
Format/Info : Advanced Audio Codec
Format profile : LC
Codec ID : A_AAC
Duration : 2 h 13 min
Bit rate : 604 kb/s
Channel(s) : 8 channels
Channel positions : Front: L C R, Side: 4, LFE
Sampling rate : 48.0 kHz
Frame rate : 46.875 FPS (1024 spf)
Compression mode : Lossy
Delay relative to video : 20 ms
Stream size : 578 MiB (11%)
Title : DTS-HD Master Audio / 7.1 / 48 kHz / 5027 kbps / 2
Language : English
Default : Yes
Forced : Yes

Subtitle #1
ID : 3
Format : PGS
Muxing mode : zlib
Codec ID : S_HDMV/PGS
Codec ID/Info : Picture based subtitle format used on BDs/HD-DVDs
Duration : 1 h 49 min
Bit rate : 714 b/s
Count of elements : 74
Stream size : 573 KiB (0%)
Title : Forced
Language : English
Default : No
Forced : Yes

Subtitle #2
ID : 4
Format : PGS
Muxing mode : zlib
Codec ID : S_HDMV/PGS
Codec ID/Info : Picture based subtitle format used on BDs/HD-DVDs
Duration : 2 h 13 min
Bit rate : 32.6 kb/s
Count of elements : 3294
Stream size : 31.1 MiB (1%)
Title : SDH
Language : English
Default : No
Forced : No
Screenshots

Download [Web-DL]

Black.Widow.2021.720p.Dsnp.Web-Dl.x265.mkv [603MB]
GDrive[Password Protected]
https://requested.the-ambassador1.workers.dev/0:/Black.Widow.2021/
Black.Widow.2021.1080p.DSNP.WEB-DL.6CH.x265.mkv [1.3GB]
GDrive[Password Protected]
https://requested.the-ambassador1.workers.dev/0:/Black.Widow.2021/
Black.Widow.2021.1080p.WEB.H264-TIMECUT.mkv [7.4GB]
https://1fichier.com/?awnwvn0045xbu565zc1z
Black.Widow.2021.1080p.DSNP.WEB-DL.DDP5.1.Atmos.H.264-Telly.mkv [7.4GB]
GDrive[Password Protected]
https://requested.the-ambassador1.workers.dev/0:/Black.Widow.2021/
GDrive[Password Protected][Mirror]
https://official3.the-ambassador1.workers.dev/0:/Black.Widow.2021/
Black.Widow.2021.2160p.DSNP.WEB-DL.DDP5.1.Atmos.HDR.HEVC-Telly.mkv [17GB]
GDrive[Password Protected]
https://requested.the-ambassador1.workers.dev/0:/Black.Widow.2021/
GDrive[Password Protected][Mirror]
https://official3.the-ambassador1.workers.dev/0:/Black.Widow.2021/
Note: If you see random letters after opening GDrive links. Close the page & open the link again – will work fine.

Password & My Message