Fast Download Mirrors

Chehre (2021) • Movie | 1080p.AMZN.WEB-DL.DDP5.1.HEVC-REVOLT

Chehre (2021) • Movie
Chehre 139min | Drama, Mystery, Thriller | August 27, 2021 (India) Summary: An 80-year-old man with a penchant for real life games in a story about rights and wrongs. It's a story about the decisions one makes in their lifetime and the fact that every decision has i... Read all
Countries: IndiaLanguages: Hindi

An 80-year-old man with a penchant for real life games in a story about rights and wrongs. It’s a story about the decisions one makes in their lifetime and the fact that every decision has its repercussions, hearing and judgment.

Mirrors: MirrorAce, MultiUp, Gdrive[GDTOT, Sharer]
Format: MKV 

Download

General
Unique ID                                : 49556417737845268925237326688144570667 (0x25483808E6249359B21F8BB50767B92B)
Complete name                            : Chehre.2021.1080p.AMZN.WEB-DL.DDP5.1.HEVC-REVOLT.mkv
Format                                   : Matroska
Format version                           : Version 4
File size                                : 4.79 GiB
Duration                                 : 2 h 18 min
Overall bit rate                         : 4 941 kb/s
Encoded date                             : UTC 2021-09-30 15:48:03
Writing application                      : mkvmerge v61.0.0 ('So') 64-bit
Writing library                          : libebml v1.4.2 + libmatroska v1.6.4

Video
ID                                       : 1
Format                                   : HEVC
Format/Info                              : High Efficiency Video Coding
Format profile                           : Main@L4@Main
Codec ID                                 : V_MPEGH/ISO/HEVC
Duration                                 : 2 h 18 min
Bit rate                                 : 4 299 kb/s
Width                                    : 1 920 pixels
Height                                   : 800 pixels
Display aspect ratio                     : 2.40:1
Frame rate mode                          : Constant
Frame rate                               : 24.000 FPS
Standard                                 : NTSC
Color space                              : YUV
Chroma subsampling                       : 4:2:0
Bit depth                                : 8 bits
Bits/(Pixel*Frame)                       : 0.117
Stream size                              : 4.17 GiB (87%)
Default                                  : Yes
Forced                                   : No
Color range                              : Limited
Color primaries                          : BT.709
Transfer characteristics                 : BT.709
Matrix coefficients                      : BT.709

Audio
ID                                       : 2
Format                                   : E-AC-3
Format/Info                              : Enhanced AC-3
Commercial name                          : Dolby Digital Plus
Codec ID                                 : A_EAC3
Duration                                 : 2 h 18 min
Bit rate mode                            : Constant
Bit rate                                 : 640 kb/s
Channel(s)                               : 6 channels
Channel layout                           : L R C LFE Ls Rs
Sampling rate                            : 48.0 kHz
Frame rate                               : 31.250 FPS (1536 SPF)
Compression mode                         : Lossy
Stream size                              : 636 MiB (13%)
Title                                    : Hindi
Language                                 : Hindi
Service kind                             : Complete Main
Default                                  : No
Forced                                   : No

Text
ID                                       : 3
Format                                   : UTF-8
Codec ID                                 : S_TEXT/UTF8
Codec ID/Info                            : UTF-8 Plain Text
Duration                                 : 2 h 14 min
Bit rate                                 : 66 b/s
Count of elements                        : 2233
Stream size                              : 65.3 KiB (0%)
Title                                    : English
Language                                 : English
Default                                  : No
Forced                                   : No


Readme

Password & My Message

Screenshots