Fast Download Mirrors

Chicago Med (2015-) • TVSeries | S01-S06.WEBRip 10Bit.1080p.DDP5.1.HEVC-d3g

Chicago Med (2015) • TVSeries
Chicago Med 2580min | Drama | November 17, 2015 (United States) Summary: The city's most highly skilled medical team saves lives, while navigating their unique interpersonal relationships.
Countries: United StatesLanguages: English

The city’s most highly skilled medical team saves lives, while navigating their unique interpersonal relationships.

Mirrors: Gdrive Index
Format: MKV 
Credits: d3g
Season(1-6) Complete

Download

Format : Matroska at 5 294 kb/s
Length : 1.55 GiB for 41 min 47 s 456 ms

Video #0 : HEVC at 4 899 kb/s
Aspect : 1920 x 1080 (1.778) at 23.976 fps

Audio #0 : E-AC-3 at 384 kb/s
Infos : 6 channels, 48.0 kHz
Language : en

Text #0 : VobSub
Language : en

Complete name                            : Chicago.Med.S06E01.When.Did.We.Begin.to.Change.1080p.WEBRip.10Bit.DDP5.1.HEVC-d3g.mkv
Format                                   : Matroska
Format version                           : Version 2
File size                                : 1.55 GiB
Duration                                 : 41 min 47 s
Overall bit rate                         : 5 294 kb/s
Movie name                               : Chicago.Med.S06E01.When.Did.We.Begin.to.Change.1080p.WEBRip.10Bit.DDP5.1.HEVC-d3g
Encoded date                             : UTC 2021-05-29 07:22:15
Writing application                      : DVDFab 12.0.3.1
Writing library                          : libebml v1.3.4 + libmatroska v1.4.5

Video
ID                                       : 1
Format                                   : HEVC
Format/Info                              : High Efficiency Video Coding
Format profile                           : Main 10@L4@Main
Codec ID                                 : V_MPEGH/ISO/HEVC
Duration                                 : 41 min 46 s
Bit rate                                 : 4 899 kb/s
Width                                    : 1 920 pixels
Height                                   : 1 080 pixels
Display aspect ratio                     : 16:9
Frame rate mode                          : Constant
Frame rate                               : 23.976 (24000/1001) FPS
Color space                              : YUV
Chroma subsampling                       : 4:2:0
Bit depth                                : 10 bits
Bits/(Pixel*Frame)                       : 0.099
Stream size                              : 1.43 GiB (93%)
Default                                  : Yes
Forced                                   : No
Color range                              : Limited
Color primaries                          : BT.709
Transfer characteristics                 : BT.709
Matrix coefficients                      : BT.709

Audio
ID                                       : 2
Format                                   : E-AC-3
Format/Info                              : Enhanced AC-3
Commercial name                          : Dolby Digital Plus
Codec ID                                 : A_EAC3
Duration                                 : 41 min 47 s
Bit rate mode                            : Constant
Bit rate                                 : 384 kb/s
Channel(s)                               : 6 channels
Channel layout                           : L R C LFE Ls Rs
Sampling rate                            : 48.0 kHz
Frame rate                               : 31.250 FPS (1536 SPF)
Compression mode                         : Lossy
Stream size                              : 115 MiB (7%)
Language                                 : English
Service kind                             : Complete Main
Default                                  : Yes
Forced                                   : No

Text
ID                                       : 3
Format                                   : VobSub
Codec ID                                 : S_VOBSUB
Codec ID/Info                            : Picture based subtitle format used on DVDs
Duration                                 : 41 min 39 s
Bit rate                                 : 10.5 kb/s
Count of elements                        : 992
Stream size                              : 3.12 MiB (0%)
Language                                 : English
Default                                  : Yes
Forced                                   : No


Password/Readme

Password & My Message

Screenshots