Fast Download Mirrors

Cobra Kai (2018-) • TVSeries | S04.1080p.NF.WEBRip.DDP5.1.x264-TEPES [17.8GB]

Cobra Kai (2018)
Cobra Kai Action, Comedy, Drama, Sport | May 2, 2018 (United States) Summary: Decades after their 1984 All Valley Karate Tournament bout, a middle-aged Daniel LaRusso and Johnny Lawrence find themselves martial-arts rivals again.
Countries: United StatesLanguages: English

This Karate Kid sequel series picks up 30 years after the events of the 1984 All Valley Karate Tournament and finds Johnny Lawrence on the hunt for redemption by reopening the infamous Cobra Kai karate dojo. This reignites his old rivalry with the successful Daniel LaRusso, who has been working to maintain the balance in his life without mentor Mr. Miyagi.

Mirrors: 1fichier, MultiUp, Gdrive[GDTOT, Sharer], MirrorAce
Format: MKV
Credits: TEPES
Seasons-4 Complete

Download

https://sharer.pw/file/QA-ZcYGOKBZX
https://sharer.pw/file/d9tCzjdE2zTY
https://sharer.pw/file/n5aANFn8uwHk
https://sharer.pw/file/Q90W7VADynLD
https://sharer.pw/file/gfuOcCmBp91n
https://sharer.pw/file/uBFGzViVASfX
https://sharer.pw/file/LED3eCG2Z6IS
https://sharer.pw/file/osQy-HAKxuSy
https://sharer.pw/file/ZDWnINKSM1tW
https://sharer.pw/file/A3Sv8DwVZ75r

https://multiup.org/86fc551b8b94b34211f168dbea7931e5
https://multiup.org/dec32bd95195d546ac5a34981f72d8de
https://multiup.org/9e9c6621865c3c9c9ced3c3c2f9a0784
https://multiup.org/8d02d76b93bd0725f6a1f73bb467fd8b
https://multiup.org/36c587760be8748b93e9244efd6444dc
https://multiup.org/e337753075bf19159878d9d5d561c4fd
https://multiup.org/4d2455d6690dc4ebf7a95208cb674c8e
https://multiup.org/98dfa282e7ba04c5990dd71c1de5cf26
https://multiup.org/c619b1b9e2383bdfafd23a883197648f
https://multiup.org/8b575a8422b54a0c0f4558fd816f10e7

https://1fichier.com/?i6aurycgdlccsum8uwm6
https://1fichier.com/?bq1rmdf4zx8xx5pq6c2d
https://1fichier.com/?pmhzyvpd6bukpm7br8oz
https://1fichier.com/?3g082sj4le01fjmv8huh
https://1fichier.com/?u7ix0izkg0s94jrrhz26
https://1fichier.com/?g007ghdmdpuxhlsubk8i
https://1fichier.com/?52yes7jdqs21lxw8qzea
https://1fichier.com/?70tweij5ij4dl5stzkrs
https://1fichier.com/?vshnrmszasxmlopemllf
https://1fichier.com/?pctp28a8nvqgecrcdunq

Cobra.Kai.S04E01.Lets.Begin.1080p.NF.WEB-DL.DDP5.1.x264-TEPES.mkv - 1.93 GB
https://new.gdtot.eu/file/2074713539

Cobra.Kai.S04E08.Party.Time.1080p.NF.WEB-DL.DDP5.1.x264-TEPES.mkv - 1.95 GB
https://new.gdtot.eu/file/2096018820

Cobra.Kai.S04E05.Match.Point.1080p.NF.WEB-DL.DDP5.1.x264-TEPES.mkv - 1.5 GB
https://new.gdtot.eu/file/1613311793

Cobra.Kai.S04E07.Minefields.1080p.NF.WEB-DL.DDP5.1.x264-TEPES.mkv - 1.93 GB
https://new.gdtot.eu/file/2067628150

Cobra.Kai.S04E09.The.Fall.1080p.NF.WEB-DL.DDP5.1.x264-TEPES.mkv - 1.66 GB
https://new.gdtot.eu/file/1780148464

Cobra.Kai.S04E10.The.Rise.1080p.NF.WEB-DL.DDP5.1.x264-TEPES.mkv - 2.58 GB
https://new.gdtot.eu/file/2771126443

Cobra.Kai.S04E03.Then.Learn.Fly.1080p.NF.WEB-DL.DDP5.1.x264-TEPES.mkv - 1.41 GB
https://new.gdtot.eu/file/1517874590

Cobra.Kai.S04E04.Bicephaly.1080p.NF.WEB-DL.DDP5.1.x264-TEPES.mkv - 1.72 GB
https://new.gdtot.eu/file/1843078197

Cobra.Kai.S04E06.Kicks.Get.Chicks.1080p.NF.WEB-DL.DDP5.1.x264-TEPES.mkv - 1.76 GB
https://new.gdtot.eu/file/1886677437

Cobra.Kai.S04E02.First.Learn.Stand.1080p.NF.WEB-DL.DDP5.1.x264-TEPES.mkv - 1.46 GB
https://new.gdtot.eu/file/1562328843

https://mirrorace.org/m/14nfp
https://mirrorace.org/m/14nfs
https://mirrorace.org/m/14nfw
https://mirrorace.org/m/3Md58
https://mirrorace.org/m/14ng7
https://mirrorace.org/m/14ngu
https://mirrorace.org/m/3Md61
https://mirrorace.org/m/3Md64
https://mirrorace.org/m/3Md6a
https://mirrorace.org/m/3Md6b
Video
ID : 1
Format : AVC
Format/Info : Advanced Video Codec
Format profile : High@L4
Format settings : CABAC / 4 Ref Frames
Format settings, CABAC : Yes
Format settings, Reference frames : 4 frames
Codec ID : V_MPEG4/ISO/AVC
Duration : 47 min 26 s
Bit rate mode : Variable
Bit rate : 7 141 kb/s
Maximum bit rate : 20.0 Mb/s
Width : 1 920 pixels
Height : 1 080 pixels
Display aspect ratio : 16:9
Frame rate mode : Constant
Frame rate : 23.976 (24000/1001) FPS
Color space : YUV
Chroma subsampling : 4:2:0
Bit depth : 8 bits
Scan type : Progressive
Bits/(Pixel*Frame) : 0.144
Stream size : 2.37 GiB (92%)
Writing library : x264 core 148 r2727 7d026e8
Encoding settings : cabac=1 / ref=4 / deblock=1:0:0 / analyse=0x3:0x111 / me=umh / subme=10 / psy=1 / psy_rd=1.00:0.00 / mixed_ref=1 / me_range=120 / chroma_me=1 / trellis=2 / 8x8dct=1 / cqm=0 / deadzone=21,11 / fast_pskip=1 / chroma_qp_offset=-2 / threads=8 / lookahead_threads=2 / sliced_threads=0 / nr=0 / decimate=1 / interlaced=0 / bluray_compat=0 / stitchable=1 / constrained_intra=0 / bframes=16 / b_pyramid=2 / b_adapt=2 / b_bias=0 / direct=3 / weightb=1 / open_gop=0 / weightp=2 / keyint=240 / keyint_min=121 / scenecut=0 / intra_refresh=0 / rc_lookahead=240 / rc=crf / mbtree=1 / crf=16.0 / qcomp=0.50 / qpmin=6 / qpmax=51 / qpstep=4 / vbv_maxrate=20000 / vbv_bufsize=25000 / crf_max=0.0 / nal_hrd=vbr / filler=0 / ip_ratio=1.40 / aq=1:0.80
Default : Yes
Forced : No

Audio
ID : 2
Format : E-AC-3
Format/Info : Enhanced AC-3
Commercial name : Dolby Digital Plus
Codec ID : A_EAC3
Duration : 47 min 27 s
Bit rate mode : Constant
Bit rate : 640 kb/s
Channel(s) : 6 channels
Channel layout : L R C LFE Ls Rs
Sampling rate : 48.0 kHz
Frame rate : 31.250 FPS (1536 SPF)
Compression mode : Lossy
Stream size : 217 MiB (8%)
Language : English
Service kind : Complete Main
Default : Yes
Forced : No

Text #1
ID : 3
Format : UTF-8
Codec ID : S_TEXT/UTF8
Codec ID/Info : UTF-8 Plain Text
Duration : 9 s 93 ms
Bit rate : 90 b/s
Count of elements : 4
Stream size : 103 Bytes (0%)
Title : Forced
Language : English
Default : Yes
Forced : Yes

Text #2
ID : 4
Format : UTF-8
Codec ID : S_TEXT/UTF8
Codec ID/Info : UTF-8 Plain Text
Duration : 42 min 55 s
Bit rate : 59 b/s
Count of elements : 608
Stream size : 18.8 KiB (0%)
Language : English
Default : No
Forced : No

Text #3
ID : 5
Format : UTF-8
Codec ID : S_TEXT/UTF8
Codec ID/Info : UTF-8 Plain Text
Duration : 43 min 33 s
Bit rate : 68 b/s
Count of elements : 744
Stream size : 21.8 KiB (0%)
Title : SDH
Language : English
Default : No
Forced : No

Text #4
ID : 6
Format : UTF-8
Codec ID : S_TEXT/UTF8
Codec ID/Info : UTF-8 Plain Text
Duration : 45 min 37 s
Bit rate : 95 b/s
Count of elements : 678
Stream size : 32.1 KiB (0%)
Language : Arabic
Default : No
Forced : No

Text #5
ID : 7
Format : UTF-8
Codec ID : S_TEXT/UTF8
Codec ID/Info : UTF-8 Plain Text
Duration : 45 min 37 s
Bit rate : 50 b/s
Count of elements : 613
Stream size : 17.0 KiB (0%)
Language : Czech
Default : No
Forced : No

Text #6
ID : 8
Format : UTF-8
Codec ID : S_TEXT/UTF8
Codec ID/Info : UTF-8 Plain Text
Duration : 45 min 37 s
Bit rate : 48 b/s
Count of elements : 535
Stream size : 16.4 KiB (0%)
Language : Danish
Default : No
Forced : No

Text #7
ID : 9
Format : UTF-8
Codec ID : S_TEXT/UTF8
Codec ID/Info : UTF-8 Plain Text
Duration : 45 min 37 s
Bit rate : 52 b/s
Count of elements : 626
Stream size : 17.7 KiB (0%)
Language : German
Default : No
Forced : No

Text #8
ID : 10
Format : UTF-8
Codec ID : S_TEXT/UTF8
Codec ID/Info : UTF-8 Plain Text
Duration : 45 min 37 s
Bit rate : 97 b/s
Count of elements : 641
Stream size : 32.7 KiB (0%)
Language : Greek
Default : No
Forced : No

Text #9
ID : 11
Format : UTF-8
Codec ID : S_TEXT/UTF8
Codec ID/Info : UTF-8 Plain Text
Duration : 45 min 37 s
Bit rate : 52 b/s
Count of elements : 615
Stream size : 17.5 KiB (0%)
Language : Spanish
Default : No
Forced : No

Text #10
ID : 12
Format : UTF-8
Codec ID : S_TEXT/UTF8
Codec ID/Info : UTF-8 Plain Text
Duration : 45 min 40 s
Bit rate : 49 b/s
Count of elements : 638
Stream size : 16.5 KiB (0%)
Title : European
Language : Spanish
Default : No
Forced : No

Text #11
ID : 13
Format : UTF-8
Codec ID : S_TEXT/UTF8
Codec ID/Info : UTF-8 Plain Text
Duration : 45 min 37 s
Bit rate : 49 b/s
Count of elements : 529
Stream size : 16.6 KiB (0%)
Language : Finnish
Default : No
Forced : No

Text #12
ID : 14
Format : UTF-8
Codec ID : S_TEXT/UTF8
Codec ID/Info : UTF-8 Plain Text
Duration : 45 min 37 s
Bit rate : 49 b/s
Count of elements : 601
Stream size : 16.4 KiB (0%)
Language : French
Default : No
Forced : No

Text #13
ID : 15
Format : UTF-8
Codec ID : S_TEXT/UTF8
Codec ID/Info : UTF-8 Plain Text
Duration : 45 min 37 s
Bit rate : 86 b/s
Count of elements : 616
Stream size : 28.9 KiB (0%)
Language : Hebrew
Default : No
Forced : No

Text #14
ID : 16
Format : UTF-8
Codec ID : S_TEXT/UTF8
Codec ID/Info : UTF-8 Plain Text
Duration : 45 min 40 s
Bit rate : 49 b/s
Count of elements : 611
Stream size : 16.6 KiB (0%)
Language : Croatian
Default : No
Forced : No

Text #15
ID : 17
Format : UTF-8
Codec ID : S_TEXT/UTF8
Codec ID/Info : UTF-8 Plain Text
Duration : 45 min 39 s
Bit rate : 56 b/s
Count of elements : 589
Stream size : 18.7 KiB (0%)
Language : Hungarian
Default : No
Forced : No

Text #16
ID : 18
Format : UTF-8
Codec ID : S_TEXT/UTF8
Codec ID/Info : UTF-8 Plain Text
Duration : 45 min 37 s
Bit rate : 51 b/s
Count of elements : 625
Stream size : 17.1 KiB (0%)
Language : Indonesian
Default : No
Forced : No

Text #17
ID : 19
Format : UTF-8
Codec ID : S_TEXT/UTF8
Codec ID/Info : UTF-8 Plain Text
Duration : 45 min 37 s
Bit rate : 51 b/s
Count of elements : 587
Stream size : 17.2 KiB (0%)
Language : Italian
Default : No
Forced : No

Text #18
ID : 20
Format : UTF-8
Codec ID : S_TEXT/UTF8
Codec ID/Info : UTF-8 Plain Text
Duration : 45 min 37 s
Bit rate : 60 b/s
Count of elements : 665
Stream size : 20.2 KiB (0%)
Language : Japanese
Default : No
Forced : No

Text #19
ID : 21
Format : UTF-8
Codec ID : S_TEXT/UTF8
Codec ID/Info : UTF-8 Plain Text
Duration : 45 min 40 s
Bit rate : 66 b/s
Count of elements : 623
Stream size : 22.2 KiB (0%)
Language : Korean
Default : No
Forced : No

Text #20
ID : 22
Format : UTF-8
Codec ID : S_TEXT/UTF8
Codec ID/Info : UTF-8 Plain Text
Duration : 44 min 4 s
Bit rate : 53 b/s
Count of elements : 620
Stream size : 17.3 KiB (0%)
Language : Malay
Default : No
Forced : No

Text #21
ID : 23
Format : UTF-8
Codec ID : S_TEXT/UTF8
Codec ID/Info : UTF-8 Plain Text
Duration : 45 min 37 s
Bit rate : 50 b/s
Count of elements : 544
Stream size : 16.7 KiB (0%)
Language : Norwegian Bokmal
Default : No
Forced : No

Text #22
ID : 24
Format : UTF-8
Codec ID : S_TEXT/UTF8
Codec ID/Info : UTF-8 Plain Text
Duration : 45 min 32 s
Bit rate : 46 b/s
Count of elements : 559
Stream size : 15.4 KiB (0%)
Language : Dutch
Default : No
Forced : No

Text #23
ID : 25
Format : UTF-8
Codec ID : S_TEXT/UTF8
Codec ID/Info : UTF-8 Plain Text
Duration : 45 min 38 s
Bit rate : 47 b/s
Count of elements : 617
Stream size : 15.9 KiB (0%)
Language : Polish
Default : No
Forced : No

Text #24
ID : 26
Format : UTF-8
Codec ID : S_TEXT/UTF8
Codec ID/Info : UTF-8 Plain Text
Duration : 45 min 37 s
Bit rate : 53 b/s
Count of elements : 619
Stream size : 17.7 KiB (0%)
Language : Portuguese
Default : No
Forced : No

Text #25
ID : 27
Format : UTF-8
Codec ID : S_TEXT/UTF8
Codec ID/Info : UTF-8 Plain Text
Duration : 45 min 37 s
Bit rate : 52 b/s
Count of elements : 641
Stream size : 17.5 KiB (0%)
Title : Brazilian
Language : Portuguese
Default : No
Forced : No

Text #26
ID : 28
Format : UTF-8
Codec ID : S_TEXT/UTF8
Codec ID/Info : UTF-8 Plain Text
Duration : 45 min 37 s
Bit rate : 61 b/s
Count of elements : 610
Stream size : 20.4 KiB (0%)
Language : Romanian
Default : No
Forced : No

Text #27
ID : 29
Format : UTF-8
Codec ID : S_TEXT/UTF8
Codec ID/Info : UTF-8 Plain Text
Duration : 45 min 42 s
Bit rate : 82 b/s
Count of elements : 635
Stream size : 27.8 KiB (0%)
Language : Russian
Default : No
Forced : No

Text #28
ID : 30
Format : UTF-8
Codec ID : S_TEXT/UTF8
Codec ID/Info : UTF-8 Plain Text
Duration : 45 min 37 s
Bit rate : 52 b/s
Count of elements : 572
Stream size : 17.6 KiB (0%)
Language : Swedish
Default : No
Forced : No

Text #29
ID : 31
Format : UTF-8
Codec ID : S_TEXT/UTF8
Codec ID/Info : UTF-8 Plain Text
Duration : 45 min 37 s
Bit rate : 147 b/s
Count of elements : 630
Stream size : 49.4 KiB (0%)
Language : Thai
Default : No
Forced : No

Text #30
ID : 32
Format : UTF-8
Codec ID : S_TEXT/UTF8
Codec ID/Info : UTF-8 Plain Text
Duration : 45 min 37 s
Bit rate : 54 b/s
Count of elements : 625
Stream size : 18.1 KiB (0%)
Language : Turkish
Default : No
Forced : No

Text #31
ID : 33
Format : UTF-8
Codec ID : S_TEXT/UTF8
Codec ID/Info : UTF-8 Plain Text
Duration : 45 min 37 s
Bit rate : 81 b/s
Count of elements : 627
Stream size : 27.2 KiB (0%)
Language : Ukrainian
Default : No
Forced : No

Text #32
ID : 34
Format : UTF-8
Codec ID : S_TEXT/UTF8
Codec ID/Info : UTF-8 Plain Text
Duration : 45 min 37 s
Bit rate : 75 b/s
Count of elements : 622
Stream size : 25.3 KiB (0%)
Language : Vietnamese
Default : No
Forced : No

Text #33
ID : 35
Format : UTF-8
Codec ID : S_TEXT/UTF8
Codec ID/Info : UTF-8 Plain Text
Duration : 45 min 39 s
Bit rate : 58 b/s
Count of elements : 635
Stream size : 19.5 KiB (0%)
Title : Simplified
Language : Chinese
Default : No
Forced : No

Text #34
ID : 36
Format : UTF-8
Codec ID : S_TEXT/UTF8
Codec ID/Info : UTF-8 Plain Text
Duration : 45 min 37 s
Bit rate : 53 b/s
Count of elements : 669
Stream size : 17.9 KiB (0%)
Title : Traditional
Language : Chinese
Default : No
Forced : No

Readme/Password

Password & My Message

Screenshots