Fast Download Mirrors

Cowboy Bebop (2021-) • TVSeries | S01.2160p.NF.WEB-DL.HDR.DDP5.1.Atmos.H.265-ABBiE [49.23GB]

Cowboy Bebop Action, Adventure, Crime, Drama, Fantasy, Sci-Fi | November 19, 2021 (United States) Summary: A ragtag crew of bounty hunters chases down the galaxy's most dangerous criminals. They'll save the world - for the right price.
Countries: United StatesLanguages: English

Long on style and perpetually short on cash, bounty hunters Spike, Jet and Faye trawl the solar system looking for jobs. But can they outrun Spike’s past?

Mirrors: MultiUp, GDrive Index, Gdrive[GDTOT, Sharer]
Format: MKV
Credits: ABBiE
Seasons-Season 1

Download

INDEX:
https://crackhub213.the-ambassador1.workers.dev/0:/Cowboy.Bebop.S01.2160p.NF.WEB-DL.HDR.DDP5.1.Atmos.H.265-ABBiE/


GDTOT:
https://new.gdtot.top/file/4575822219
https://new.gdtot.top/file/4727316475
https://new.gdtot.top/file/4813340771
https://new.gdtot.top/file/5062788276
https://new.gdtot.top/file/5283829733
https://new.gdtot.top/file/5362893931
https://new.gdtot.top/file/5500410107
https://new.gdtot.top/file/5660915903
https://new.gdtot.top/file/5750445178
https://new.gdtot.top/file/6123936521

SHARER.PW:
https://sharer.pw/file/4_tsmvhOuNSI
https://sharer.pw/file/PFkcymP2Sl7V
https://sharer.pw/file/S_9dhvxSbVfR
https://sharer.pw/file/Tw5MgoBfRkQs
https://sharer.pw/file/XXOEzcMiAWgg
https://sharer.pw/file/fDZFkkGYxRtS
https://sharer.pw/file/hvi4fegDYUin
https://sharer.pw/file/jHIp-3ptasC3
https://sharer.pw/file/mu0-3IxPODJp
https://sharer.pw/file/t9C6qQ71qK19


MULTIUP:
https://multiup.org/download/49702e2b30055206d2541e854ce6f8df/Cowboy.Bebop.S01E01.Cowboy.Gospel.2160p.NF.WEB-DL.HDR.DDP5.1.Atmos.H.265-ABBiE.mkv
https://multiup.org/download/10a7373e85788525ec31dcdd6e2506d2/Cowboy.Bebop.S01E02.Venus.Pop.2160p.NF.WEB-DL.HDR.DDP5.1.Atmos.H.265-ABBiE.mkv
https://multiup.org/download/96b26cb5b75b03458f92f1c73d5750a5/Cowboy.Bebop.S01E03.Dog.Star.Swing.2160p.NF.WEB-DL.HDR.DDP5.1.Atmos.H.265-ABBiE.mkv
https://multiup.org/download/3f5815299e7e086d23959ce456031b52/Cowboy.Bebop.S01E04.Callisto.Soul.2160p.NF.WEB-DL.HDR.DDP5.1.Atmos.H.265-ABBiE.mkv
https://multiup.org/download/1aaa0a4bf2d8bac3998d7ea3768d2494/Cowboy.Bebop.S01E05.Darkside.Tango.2160p.NF.WEB-DL.HDR.DDP5.1.Atmos.H.265-ABBiE.mkv
https://multiup.org/download/4c49457d960d1102473fc4d18beb9134/Cowboy.Bebop.S01E06.Binary.Two-Step.2160p.NF.WEB-DL.HDR.DDP5.1.Atmos.H.265-ABBiE.mkv
https://multiup.org/download/6d8d5fb53904211c41ff2b68e90c0282/Cowboy.Bebop.S01E07.Galileo.Hustle.2160p.NF.WEB-DL.HDR.DDP5.1.Atmos.H.265-ABBiE.mkv
https://multiup.org/download/8686e6f49c339d3876f67c70a398a9c4/Cowboy.Bebop.S01E08.Sad.Clown.A-Go-Go.2160p.NF.WEB-DL.HDR.DDP5.1.Atmos.H.265-ABBiE.mkv
https://multiup.org/download/0fa5b9a1fc8c2a5d742bd3d87c05f8a5/Cowboy.Bebop.S01E09.Blue.Crow.Waltz.2160p.NF.WEB-DL.HDR.DDP5.1.Atmos.H.265-ABBiE.mkv
https://multiup.org/download/ef3bbdf78a546148fa459a47e9fb7f35/Cowboy.Bebop.S01E10.Supernova.Symphony.2160p.NF.WEB-DL.HDR.DDP5.1.Atmos.H.265-ABBiE.mkv
General
Unique ID                                : 2559335916523114094247511636143989637 (0x1ECE900C4168DD43D19B07FF31B6385)
Complete name                            : Cowboy.Bebop.S01E01.Cowboy.Gospel.2160p.NF.WEB-DL.HDR.DDP5.1.Atmos.H.265-ABBiE.mkv
Format                                   : Matroska
Format version                           : Version 4
File size                                : 4.92 GiB
Duration                                 : 50 min 21 s
Overall bit rate                         : 14.0 Mb/s
Encoded date                             : UTC 2021-11-19 13:25:57
Writing application                      : mkvmerge v62.0.0 ('Apollo') 64-bit
Writing library                          : libebml v1.4.2 + libmatroska v1.6.4

Video
ID                                       : 1
Format                                   : HEVC
Format/Info                              : High Efficiency Video Coding
Format profile                           : Main 10@L5@Main
HDR format                               : SMPTE ST 2086, HDR10 compatible
Codec ID                                 : V_MPEGH/ISO/HEVC
Duration                                 : 48 min 34 s
Bit rate                                 : 13.7 Mb/s
Width                                    : 3 840 pixels
Height                                   : 2 160 pixels
Display aspect ratio                     : 16:9
Frame rate mode                          : Constant
Frame rate                               : 23.976 (24000/1001) FPS
Color space                              : YUV
Chroma subsampling                       : 4:2:0 (Type 2)
Bit depth                                : 10 bits
Bits/(Pixel*Frame)                       : 0.069
Stream size                              : 4.65 GiB (94%)
Default                                  : Yes
Forced                                   : No
Color range                              : Limited
Color primaries                          : BT.2020
Transfer characteristics                 : PQ
Matrix coefficients                      : BT.2020 non-constant
Mastering display color primaries        : Display P3
Mastering display luminance              : min: 0.0001 cd/m2, max: 1000 cd/m2
Maximum Content Light Level              : 756 cd/m2
Maximum Frame-Average Light Level        : 219 cd/m2

Audio
ID                                       : 2
Format                                   : E-AC-3 JOC
Format/Info                              : Enhanced AC-3 with Joint Object Coding
Commercial name                          : Dolby Digital Plus with Dolby Atmos
Codec ID                                 : A_EAC3
Duration                                 : 50 min 21 s
Bit rate mode                            : Constant
Bit rate                                 : 768 kb/s
Channel(s)                               : 6 channels
Channel layout                           : L R C LFE Ls Rs
Sampling rate                            : 48.0 kHz
Frame rate                               : 31.250 FPS (1536 SPF)
Compression mode                         : Lossy
Stream size                              : 277 MiB (5%)
Language                                 : English
Service kind                             : Complete Main
Default                                  : Yes
Forced                                   : No
Complexity index                         : 16
Number of dynamic objects                : 15
Bed channel count                        : 1 channel
Bed channel configuration                : LFE

Text #1
ID                                       : 3
Format                                   : UTF-8
Codec ID                                 : S_TEXT/UTF8
Codec ID/Info                            : UTF-8 Plain Text
Duration                                 : 46 min 33 s
Bit rate                                 : 47 b/s
Count of elements                        : 647
Stream size                              : 16.3 KiB (0%)
Title                                    : [CC]
Language                                 : English
Default                                  : Yes
Forced                                   : No

Text #2
ID                                       : 4
Format                                   : UTF-8
Codec ID                                 : S_TEXT/UTF8
Codec ID/Info                            : UTF-8 Plain Text
Duration                                 : 48 min 17 s
Bit rate                                 : 62 b/s
Count of elements                        : 481
Stream size                              : 22.2 KiB (0%)
Language                                 : Arabic
Default                                  : No
Forced                                   : No

Text #3
ID                                       : 5
Format                                   : UTF-8
Codec ID                                 : S_TEXT/UTF8
Codec ID/Info                            : UTF-8 Plain Text
Duration                                 : 48 min 17 s
Bit rate                                 : 33 b/s
Count of elements                        : 476
Stream size                              : 11.9 KiB (0%)
Language                                 : Czech
Default                                  : No
Forced                                   : No

Text #4
ID                                       : 6
Format                                   : UTF-8
Codec ID                                 : S_TEXT/UTF8
Codec ID/Info                            : UTF-8 Plain Text
Duration                                 : 48 min 17 s
Bit rate                                 : 33 b/s
Count of elements                        : 465
Stream size                              : 11.7 KiB (0%)
Language                                 : Danish
Default                                  : No
Forced                                   : No

Text #5
ID                                       : 7
Format                                   : UTF-8
Codec ID                                 : S_TEXT/UTF8
Codec ID/Info                            : UTF-8 Plain Text
Duration                                 : 48 min 17 s
Bit rate                                 : 32 b/s
Count of elements                        : 466
Stream size                              : 11.6 KiB (0%)
Language                                 : German
Default                                  : No
Forced                                   : No

Text #6
ID                                       : 8
Format                                   : UTF-8
Codec ID                                 : S_TEXT/UTF8
Codec ID/Info                            : UTF-8 Plain Text
Duration                                 : 48 min 17 s
Bit rate                                 : 56 b/s
Count of elements                        : 474
Stream size                              : 19.9 KiB (0%)
Language                                 : Greek
Default                                  : No
Forced                                   : No

Text #7
ID                                       : 9
Format                                   : UTF-8
Codec ID                                 : S_TEXT/UTF8
Codec ID/Info                            : UTF-8 Plain Text
Duration                                 : 48 min 17 s
Bit rate                                 : 35 b/s
Count of elements                        : 474
Stream size                              : 12.6 KiB (0%)
Language                                 : Spanish
Default                                  : No
Forced                                   : No

Text #8
ID                                       : 10
Format                                   : UTF-8
Codec ID                                 : S_TEXT/UTF8
Codec ID/Info                            : UTF-8 Plain Text
Duration                                 : 48 min 17 s
Bit rate                                 : 34 b/s
Count of elements                        : 470
Stream size                              : 12.1 KiB (0%)
Title                                    : European
Language                                 : Spanish
Default                                  : No
Forced                                   : No

Text #9
ID                                       : 11
Format                                   : UTF-8
Codec ID                                 : S_TEXT/UTF8
Codec ID/Info                            : UTF-8 Plain Text
Duration                                 : 48 min 17 s
Bit rate                                 : 30 b/s
Count of elements                        : 472
Stream size                              : 10.8 KiB (0%)
Language                                 : Finnish
Default                                  : No
Forced                                   : No

Text #10
ID                                       : 12
Format                                   : UTF-8
Codec ID                                 : S_TEXT/UTF8
Codec ID/Info                            : UTF-8 Plain Text
Duration                                 : 48 min 17 s
Bit rate                                 : 32 b/s
Count of elements                        : 466
Stream size                              : 11.6 KiB (0%)
Language                                 : French
Default                                  : No
Forced                                   : No

Text #11
ID                                       : 13
Format                                   : UTF-8
Codec ID                                 : S_TEXT/UTF8
Codec ID/Info                            : UTF-8 Plain Text
Duration                                 : 48 min 17 s
Bit rate                                 : 58 b/s
Count of elements                        : 481
Stream size                              : 20.6 KiB (0%)
Language                                 : Hebrew
Default                                  : No
Forced                                   : No

Text #12
ID                                       : 14
Format                                   : UTF-8
Codec ID                                 : S_TEXT/UTF8
Codec ID/Info                            : UTF-8 Plain Text
Duration                                 : 48 min 17 s
Bit rate                                 : 31 b/s
Count of elements                        : 475
Stream size                              : 11.0 KiB (0%)
Language                                 : Croatian
Default                                  : No
Forced                                   : No

Text #13
ID                                       : 15
Format                                   : UTF-8
Codec ID                                 : S_TEXT/UTF8
Codec ID/Info                            : UTF-8 Plain Text
Duration                                 : 48 min 17 s
Bit rate                                 : 33 b/s
Count of elements                        : 474
Stream size                              : 11.9 KiB (0%)
Language                                 : Hungarian
Default                                  : No
Forced                                   : No

Text #14
ID                                       : 16
Format                                   : UTF-8
Codec ID                                 : S_TEXT/UTF8
Codec ID/Info                            : UTF-8 Plain Text
Duration                                 : 48 min 17 s
Bit rate                                 : 33 b/s
Count of elements                        : 476
Stream size                              : 11.7 KiB (0%)
Language                                 : Indonesian
Default                                  : No
Forced                                   : No

Text #15
ID                                       : 17
Format                                   : UTF-8
Codec ID                                 : S_TEXT/UTF8
Codec ID/Info                            : UTF-8 Plain Text
Duration                                 : 48 min 17 s
Bit rate                                 : 32 b/s
Count of elements                        : 472
Stream size                              : 11.6 KiB (0%)
Language                                 : Italian
Default                                  : No
Forced                                   : No

Text #16
ID                                       : 18
Format                                   : UTF-8
Codec ID                                 : S_TEXT/UTF8
Codec ID/Info                            : UTF-8 Plain Text
Duration                                 : 48 min 17 s
Bit rate                                 : 35 b/s
Count of elements                        : 433
Stream size                              : 12.7 KiB (0%)
Language                                 : Japanese
Default                                  : No
Forced                                   : No

Text #17
ID                                       : 19
Format                                   : UTF-8
Codec ID                                 : S_TEXT/UTF8
Codec ID/Info                            : UTF-8 Plain Text
Duration                                 : 46 min 51 s
Bit rate                                 : 46 b/s
Count of elements                        : 479
Stream size                              : 16.0 KiB (0%)
Language                                 : Korean
Default                                  : No
Forced                                   : No

Text #18
ID                                       : 20
Format                                   : UTF-8
Codec ID                                 : S_TEXT/UTF8
Codec ID/Info                            : UTF-8 Plain Text
Duration                                 : 48 min 17 s
Bit rate                                 : 33 b/s
Count of elements                        : 474
Stream size                              : 11.7 KiB (0%)
Language                                 : Malay
Default                                  : No
Forced                                   : No

Text #19
ID                                       : 21
Format                                   : UTF-8
Codec ID                                 : S_TEXT/UTF8
Codec ID/Info                            : UTF-8 Plain Text
Duration                                 : 48 min 17 s
Bit rate                                 : 31 b/s
Count of elements                        : 474
Stream size                              : 11.3 KiB (0%)
Language                                 : Norwegian Bokmal
Default                                  : No
Forced                                   : No

Text #20
ID                                       : 22
Format                                   : UTF-8
Codec ID                                 : S_TEXT/UTF8
Codec ID/Info                            : UTF-8 Plain Text
Duration                                 : 48 min 17 s
Bit rate                                 : 31 b/s
Count of elements                        : 457
Stream size                              : 11.2 KiB (0%)
Language                                 : Dutch
Default                                  : No
Forced                                   : No

Text #21
ID                                       : 23
Format                                   : UTF-8
Codec ID                                 : S_TEXT/UTF8
Codec ID/Info                            : UTF-8 Plain Text
Duration                                 : 48 min 17 s
Bit rate                                 : 30 b/s
Count of elements                        : 463
Stream size                              : 10.9 KiB (0%)
Language                                 : Polish
Default                                  : No
Forced                                   : No

Text #22
ID                                       : 24
Format                                   : UTF-8
Codec ID                                 : S_TEXT/UTF8
Codec ID/Info                            : UTF-8 Plain Text
Duration                                 : 48 min 17 s
Bit rate                                 : 34 b/s
Count of elements                        : 473
Stream size                              : 12.0 KiB (0%)
Language                                 : Portuguese
Default                                  : No
Forced                                   : No

Text #23
ID                                       : 25
Format                                   : UTF-8
Codec ID                                 : S_TEXT/UTF8
Codec ID/Info                            : UTF-8 Plain Text
Duration                                 : 48 min 17 s
Bit rate                                 : 32 b/s
Count of elements                        : 472
Stream size                              : 11.6 KiB (0%)
Title                                    : Brazilian
Language                                 : Portuguese
Default                                  : No
Forced                                   : No

Text #24
ID                                       : 26
Format                                   : UTF-8
Codec ID                                 : S_TEXT/UTF8
Codec ID/Info                            : UTF-8 Plain Text
Duration                                 : 48 min 17 s
Bit rate                                 : 38 b/s
Count of elements                        : 474
Stream size                              : 13.5 KiB (0%)
Language                                 : Romanian
Default                                  : No
Forced                                   : No

Text #25
ID                                       : 27
Format                                   : UTF-8
Codec ID                                 : S_TEXT/UTF8
Codec ID/Info                            : UTF-8 Plain Text
Duration                                 : 48 min 17 s
Bit rate                                 : 54 b/s
Count of elements                        : 481
Stream size                              : 19.4 KiB (0%)
Language                                 : Russian
Default                                  : No
Forced                                   : No

Text #26
ID                                       : 28
Format                                   : UTF-8
Codec ID                                 : S_TEXT/UTF8
Codec ID/Info                            : UTF-8 Plain Text
Duration                                 : 48 min 17 s
Bit rate                                 : 31 b/s
Count of elements                        : 471
Stream size                              : 11.2 KiB (0%)
Language                                 : Swedish
Default                                  : No
Forced                                   : No

Text #27
ID                                       : 29
Format                                   : UTF-8
Codec ID                                 : S_TEXT/UTF8
Codec ID/Info                            : UTF-8 Plain Text
Duration                                 : 48 min 17 s
Bit rate                                 : 88 b/s
Count of elements                        : 481
Stream size                              : 31.3 KiB (0%)
Language                                 : Thai
Default                                  : No
Forced                                   : No

Text #28
ID                                       : 30
Format                                   : UTF-8
Codec ID                                 : S_TEXT/UTF8
Codec ID/Info                            : UTF-8 Plain Text
Duration                                 : 48 min 17 s
Bit rate                                 : 34 b/s
Count of elements                        : 477
Stream size                              : 12.2 KiB (0%)
Language                                 : Turkish
Default                                  : No
Forced                                   : No

Text #29
ID                                       : 31
Format                                   : UTF-8
Codec ID                                 : S_TEXT/UTF8
Codec ID/Info                            : UTF-8 Plain Text
Duration                                 : 46 min 51 s
Bit rate                                 : 61 b/s
Count of elements                        : 480
Stream size                              : 21.1 KiB (0%)
Language                                 : Ukrainian
Default                                  : No
Forced                                   : No

Text #30
ID                                       : 32
Format                                   : UTF-8
Codec ID                                 : S_TEXT/UTF8
Codec ID/Info                            : UTF-8 Plain Text
Duration                                 : 48 min 17 s
Bit rate                                 : 48 b/s
Count of elements                        : 479
Stream size                              : 17.1 KiB (0%)
Language                                 : Vietnamese
Default                                  : No
Forced                                   : No

Text #31
ID                                       : 33
Format                                   : UTF-8
Codec ID                                 : S_TEXT/UTF8
Codec ID/Info                            : UTF-8 Plain Text
Duration                                 : 48 min 17 s
Bit rate                                 : 39 b/s
Count of elements                        : 481
Stream size                              : 13.9 KiB (0%)
Title                                    : Simplified
Language                                 : Chinese
Default                                  : No
Forced                                   : No

Text #32
ID                                       : 34
Format                                   : UTF-8
Codec ID                                 : S_TEXT/UTF8
Codec ID/Info                            : UTF-8 Plain Text
Duration                                 : 48 min 17 s
Bit rate                                 : 36 b/s
Count of elements                        : 481
Stream size                              : 13.0 KiB (0%)
Title                                    : Traditional
Language                                 : Chinese
Default                                  : No
Forced                                   : No

Readme/Password

Password & My Message

Screenshots