Fast Download Mirrors

Cowboy Bebop (2021-) • TVSeries | S01.1080p.NF.WEB-DL.DD+5.1.Atmos.HEVC-Telly [20GB]

Cowboy Bebop (2021-) • TVSeries
Cowboy Bebop Action, Adventure, Crime, Drama, Fantasy, Sci-Fi | November 19, 2021 (United States) Summary: A ragtag crew of bounty hunters chases down the galaxy's most dangerous criminals. They'll save the world - for the right price.
Countries: United StatesLanguages: English

Long on style and perpetually short on cash, bounty hunters Spike, Jet and Faye trawl the solar system looking for jobs. But can they outrun Spike’s past?

Mirrors: MirrorAce, MultiUp, Gdrive[GDTOT]
Format: MKV
Credits: Telly
Season - 1 Complete

Download

[Single file]
Cowboy.Bebop.S01.1080p.NF.WEB-DL.HIN-ENG.DD+5.1.Atmos.HDR.HEVC-Telly.rar - 20.01 GB
https://new.gdtot.top/file/21490554172

[Single Episode]
Cowboy.Bebop.S01E01.Cowboy.Gospel.1080p.NF.WEB-DL.DD+5.1.Atmos.HEVC-Telly.mkv - 1.94 GB
https://new.gdtot.top/file/2084657250

Cowboy.Bebop.S01E02.Venus.Pop.1080p.NF.WEB-DL.DD+5.1.Atmos.HEVC-Telly.mkv - 1.76 GB
https://new.gdtot.top/file/1888012274

Cowboy.Bebop.S01E03.Dog.Star.Swing.1080p.NF.WEB-DL.DD+5.1.Atmos.HEVC-Telly.mkv - 2.17 GB
https://new.gdtot.top/file/2329967820

Cowboy.Bebop.S01E04.Callisto.Soul.1080p.NF.WEB-DL.DD+5.1.Atmos.HEVC-Telly.mkv - 1.81 GB
https://new.gdtot.top/file/1938361030

Cowboy.Bebop.S01E05.Darkside.Tango.1080p.NF.WEB-DL.DD+5.1.Atmos.HEVC-Telly.mkv - 2.14 GB
https://new.gdtot.top/file/2302828934

Cowboy.Bebop.S01E06.Binary.TwoStep.1080p.NF.WEB-DL.DD+5.1.Atmos.HEVC-Telly.mkv - 1.82 GB
https://new.gdtot.top/file/1949922014

Cowboy.Bebop.S01E07.Galileo.Hustle.1080p.NF.WEB-DL.DD+5.1.Atmos.HEVC-Telly.mkv - 2.16 GB
https://new.gdtot.top/file/2322995413

Cowboy.Bebop.S01E08.Sad.Clown.AGoGo.1080p.NF.WEB-DL.DD+5.1.Atmos.HEVC-Telly.mkv - 1.67 GB
https://new.gdtot.top/file/1790756301

Cowboy.Bebop.S01E09.Blue.Crow.Waltz.1080p.NF.WEB-DL.DD+5.1.Atmos.HEVC-Telly.mkv - 2.32 GB
https://new.gdtot.top/file/2489328449

https://multiup.org/36188d6551a3cead18de12102aede4cb
https://multiup.org/52b3edcfcf845446cde6639d90369dbf
https://multiup.org/258d9076f0f878d73fc43aaf4e47d708
https://multiup.org/e5bf5aaec8b96b64da8ce872d73708a5
https://multiup.org/844d82989ac9c30750466cd4a579cd19
https://multiup.org/fbe7cf1a9724856a891c55ce588b9576
https://multiup.org/3737b1bf5b7c2ad8998cf3ffe0f445b2
https://multiup.org/37817810f18d82ae80b2dd5b29106fa7
https://multiup.org/5960c1e2f4f278653cf906f516ef3677
https://multiup.org/6c1c0373de899db271145f46413d38f4

https://mirrorace.org/m/57IvP
https://mirrorace.org/m/57IvR
https://mirrorace.org/m/57IvT
https://mirrorace.org/m/6tDqy
https://mirrorace.org/m/5NFYg
https://mirrorace.org/m/35Q91
https://mirrorace.org/m/35Q93
https://mirrorace.org/m/35Q94
https://mirrorace.org/m/35Q96
https://mirrorace.org/m/35Q98
Complete name                            : Cowboy.Bebop.S01E01.Cowboy.Gospel.1080p.NF.WEB-DL.DD+5.1.Atmos.HEVC-Telly.mkv
Format                                   : Matroska
Format version                           : Version 4
File size                                : 1.94 GiB
Duration                                 : 50 min 22 s
Overall bit rate                         : 5 518 kb/s
Movie name                               : Telly
Encoded date                             : UTC 2021-11-19 08:42:42
Writing application                      : mkvmerge v59.0.0 ('Shining Star') 64-bit
Writing library                          : libebml v1.4.2 + libmatroska v1.6.4

Video
ID                                       : 1
Format                                   : HEVC
Format/Info                              : High Efficiency Video Coding
Commercial name                          : HDR10
Format profile                           : Main 10@L4@Main
Codec ID                                 : V_MPEGH/ISO/HEVC
Duration                                 : 48 min 34 s
Bit rate                                 : 4 258 kb/s
Width                                    : 1 920 pixels
Height                                   : 1 080 pixels
Display aspect ratio                     : 16:9
Frame rate mode                          : Constant
Frame rate                               : 23.976 (24000/1001) FPS
Color space                              : YUV
Chroma subsampling                       : 4:2:0 (Type 2)
Bit depth                                : 10 bits
Bits/(Pixel*Frame)                       : 0.086
Stream size                              : 1.44 GiB (74%)
Default                                  : Yes
Forced                                   : No
Color range                              : Limited
Color primaries                          : BT.2020
Transfer characteristics                 : PQ
Matrix coefficients                      : BT.2020 non-constant
Mastering display color primaries        : Display P3
Mastering display luminance              : min: 0.0001 cd/m2, max: 1000 cd/m2
Maximum Content Light Level              : 756 cd/m2
Maximum Frame-Average Light Level        : 219 cd/m2

Audio #1
ID                                       : 2
Format                                   : E-AC-3
Format/Info                              : Enhanced AC-3
Commercial name                          : Dolby Digital Plus
Codec ID                                 : A_EAC3
Duration                                 : 50 min 22 s
Bit rate mode                            : Constant
Bit rate                                 : 640 kb/s
Channel(s)                               : 6 channels
Channel layout                           : L R C LFE Ls Rs
Sampling rate                            : 48.0 kHz
Frame rate                               : 31.250 FPS (1536 SPF)
Compression mode                         : Lossy
Stream size                              : 231 MiB (12%)
Title                                    : Hindi
Language                                 : Hindi
Service kind                             : Complete Main
Default                                  : Yes
Forced                                   : No

Audio #2
ID                                       : 3
Format                                   : E-AC-3 JOC
Format/Info                              : Enhanced AC-3 with Joint Object Coding
Commercial name                          : Dolby Digital Plus with Dolby Atmos
Codec ID                                 : A_EAC3
Duration                                 : 50 min 21 s
Bit rate mode                            : Constant
Bit rate                                 : 768 kb/s
Channel(s)                               : 6 channels
Channel layout                           : L R C LFE Ls Rs
Sampling rate                            : 48.0 kHz
Frame rate                               : 31.250 FPS (1536 SPF)
Compression mode                         : Lossy
Stream size                              : 277 MiB (14%)
Title                                    : English
Language                                 : English
Service kind                             : Complete Main
Default                                  : No
Forced                                   : No
Complexity index                         : 16
Number of dynamic objects                : 15
Bed channel count                        : 1 channel
Bed channel configuration                : LFE

Text #1
ID                                       : 4
Format                                   : UTF-8
Codec ID                                 : S_TEXT/UTF8
Codec ID/Info                            : UTF-8 Plain Text
Duration                                 : 46 min 33 s
Bit rate                                 : 64 b/s
Count of elements                        : 647
Stream size                              : 22.1 KiB (0%)
Title                                    : English
Language                                 : English
Default                                  : No
Forced                                   : No

Text #2
ID                                       : 5
Format                                   : UTF-8
Codec ID                                 : S_TEXT/UTF8
Codec ID/Info                            : UTF-8 Plain Text
Duration                                 : 46 min 33 s
Bit rate                                 : 64 b/s
Count of elements                        : 647
Stream size                              : 22.1 KiB (0%)
Title                                    : English
Language                                 : English
Default                                  : No
Forced                                   : No

Text #3
ID                                       : 6
Format                                   : UTF-8
Codec ID                                 : S_TEXT/UTF8
Codec ID/Info                            : UTF-8 Plain Text
Duration                                 : 48 min 17 s
Bit rate                                 : 67 b/s
Count of elements                        : 481
Stream size                              : 23.9 KiB (0%)
Title                                    : Arabic
Language                                 : Arabic
Default                                  : No
Forced                                   : No

Text #4
ID                                       : 7
Format                                   : UTF-8
Codec ID                                 : S_TEXT/UTF8
Codec ID/Info                            : UTF-8 Plain Text
Duration                                 : 48 min 17 s
Bit rate                                 : 39 b/s
Count of elements                        : 481
Stream size                              : 13.9 KiB (0%)
Title                                    : Chinese Simplified
Language                                 : Chinese
Default                                  : No
Forced                                   : No

Text #5
ID                                       : 8
Format                                   : UTF-8
Codec ID                                 : S_TEXT/UTF8
Codec ID/Info                            : UTF-8 Plain Text
Duration                                 : 48 min 17 s
Bit rate                                 : 37 b/s
Count of elements                        : 481
Stream size                              : 13.1 KiB (0%)
Title                                    : Chinese Traditional
Language                                 : Chinese
Default                                  : No
Forced                                   : No

Text #6
ID                                       : 9
Format                                   : UTF-8
Codec ID                                 : S_TEXT/UTF8
Codec ID/Info                            : UTF-8 Plain Text
Duration                                 : 48 min 17 s
Bit rate                                 : 31 b/s
Count of elements                        : 475
Stream size                              : 11.2 KiB (0%)
Title                                    : Croatian
Language                                 : Croatian
Default                                  : No
Forced                                   : No

Text #7
ID                                       : 10
Format                                   : UTF-8
Codec ID                                 : S_TEXT/UTF8
Codec ID/Info                            : UTF-8 Plain Text
Duration                                 : 48 min 17 s
Bit rate                                 : 34 b/s
Count of elements                        : 476
Stream size                              : 12.1 KiB (0%)
Title                                    : Czech
Language                                 : Czech
Default                                  : No
Forced                                   : No

Text #8
ID                                       : 11
Format                                   : UTF-8
Codec ID                                 : S_TEXT/UTF8
Codec ID/Info                            : UTF-8 Plain Text
Duration                                 : 48 min 17 s
Bit rate                                 : 33 b/s
Count of elements                        : 465
Stream size                              : 11.9 KiB (0%)
Title                                    : Danish
Language                                 : Danish
Default                                  : No
Forced                                   : No

Text #9
ID                                       : 12
Format                                   : UTF-8
Codec ID                                 : S_TEXT/UTF8
Codec ID/Info                            : UTF-8 Plain Text
Duration                                 : 48 min 17 s
Bit rate                                 : 31 b/s
Count of elements                        : 457
Stream size                              : 11.3 KiB (0%)
Title                                    : Dutch
Language                                 : Dutch
Default                                  : No
Forced                                   : No

Text #10
ID                                       : 13
Format                                   : UTF-8
Codec ID                                 : S_TEXT/UTF8
Codec ID/Info                            : UTF-8 Plain Text
Duration                                 : 48 min 17 s
Bit rate                                 : 31 b/s
Count of elements                        : 472
Stream size                              : 11.0 KiB (0%)
Title                                    : Finnish
Language                                 : Finnish
Default                                  : No
Forced                                   : No

Text #11
ID                                       : 14
Format                                   : UTF-8
Codec ID                                 : S_TEXT/UTF8
Codec ID/Info                            : UTF-8 Plain Text
Duration                                 : 48 min 17 s
Bit rate                                 : 33 b/s
Count of elements                        : 466
Stream size                              : 11.8 KiB (0%)
Title                                    : French
Language                                 : French
Default                                  : No
Forced                                   : No

Text #12
ID                                       : 15
Format                                   : UTF-8
Codec ID                                 : S_TEXT/UTF8
Codec ID/Info                            : UTF-8 Plain Text
Duration                                 : 48 min 17 s
Bit rate                                 : 33 b/s
Count of elements                        : 466
Stream size                              : 11.8 KiB (0%)
Title                                    : German
Language                                 : German
Default                                  : No
Forced                                   : No

Text #13
ID                                       : 16
Format                                   : UTF-8
Codec ID                                 : S_TEXT/UTF8
Codec ID/Info                            : UTF-8 Plain Text
Duration                                 : 48 min 17 s
Bit rate                                 : 56 b/s
Count of elements                        : 474
Stream size                              : 20.1 KiB (0%)
Title                                    : Greek
Language                                 : Greek
Default                                  : No
Forced                                   : No

Text #14
ID                                       : 17
Format                                   : UTF-8
Codec ID                                 : S_TEXT/UTF8
Codec ID/Info                            : UTF-8 Plain Text
Duration                                 : 48 min 17 s
Bit rate                                 : 58 b/s
Count of elements                        : 481
Stream size                              : 20.7 KiB (0%)
Title                                    : Hebrew
Language                                 : Hebrew
Default                                  : No
Forced                                   : No

Text #15
ID                                       : 18
Format                                   : UTF-8
Codec ID                                 : S_TEXT/UTF8
Codec ID/Info                            : UTF-8 Plain Text
Duration                                 : 48 min 17 s
Bit rate                                 : 34 b/s
Count of elements                        : 474
Stream size                              : 12.1 KiB (0%)
Title                                    : Hungarian
Language                                 : Hungarian
Default                                  : No
Forced                                   : No

Text #16
ID                                       : 19
Format                                   : UTF-8
Codec ID                                 : S_TEXT/UTF8
Codec ID/Info                            : UTF-8 Plain Text
Duration                                 : 48 min 17 s
Bit rate                                 : 33 b/s
Count of elements                        : 476
Stream size                              : 11.9 KiB (0%)
Title                                    : Indonesian
Language                                 : Indonesian
Default                                  : No
Forced                                   : No

Text #17
ID                                       : 20
Format                                   : UTF-8
Codec ID                                 : S_TEXT/UTF8
Codec ID/Info                            : UTF-8 Plain Text
Duration                                 : 48 min 17 s
Bit rate                                 : 33 b/s
Count of elements                        : 472
Stream size                              : 11.8 KiB (0%)
Title                                    : Italian
Language                                 : Italian
Default                                  : No
Forced                                   : No

Text #18
ID                                       : 21
Format                                   : UTF-8
Codec ID                                 : S_TEXT/UTF8
Codec ID/Info                            : UTF-8 Plain Text
Duration                                 : 48 min 17 s
Bit rate                                 : 35 b/s
Count of elements                        : 439
Stream size                              : 12.7 KiB (0%)
Title                                    : Japanese
Language                                 : Japanese
Default                                  : No
Forced                                   : No

Text #19
ID                                       : 22
Format                                   : UTF-8
Codec ID                                 : S_TEXT/UTF8
Codec ID/Info                            : UTF-8 Plain Text
Duration                                 : 46 min 51 s
Bit rate                                 : 46 b/s
Count of elements                        : 479
Stream size                              : 16.1 KiB (0%)
Title                                    : Korean
Language                                 : Korean
Default                                  : No
Forced                                   : No

Text #20
ID                                       : 23
Format                                   : UTF-8
Codec ID                                 : S_TEXT/UTF8
Codec ID/Info                            : UTF-8 Plain Text
Duration                                 : 48 min 17 s
Bit rate                                 : 33 b/s
Count of elements                        : 474
Stream size                              : 11.9 KiB (0%)
Title                                    : Malay
Language                                 : Malay
Default                                  : No
Forced                                   : No

Text #21
ID                                       : 24
Format                                   : UTF-8
Codec ID                                 : S_TEXT/UTF8
Codec ID/Info                            : UTF-8 Plain Text
Duration                                 : 48 min 17 s
Bit rate                                 : 32 b/s
Count of elements                        : 474
Stream size                              : 11.5 KiB (0%)
Title                                    : Norwegian Bokmal
Language                                 : Norwegian Bokmal
Default                                  : No
Forced                                   : No

Text #22
ID                                       : 25
Format                                   : UTF-8
Codec ID                                 : S_TEXT/UTF8
Codec ID/Info                            : UTF-8 Plain Text
Duration                                 : 48 min 17 s
Bit rate                                 : 31 b/s
Count of elements                        : 463
Stream size                              : 11.1 KiB (0%)
Title                                    : Polish
Language                                 : Polish
Default                                  : No
Forced                                   : No

Text #23
ID                                       : 26
Format                                   : UTF-8
Codec ID                                 : S_TEXT/UTF8
Codec ID/Info                            : UTF-8 Plain Text
Duration                                 : 48 min 17 s
Bit rate                                 : 34 b/s
Count of elements                        : 473
Stream size                              : 12.3 KiB (0%)
Title                                    : Portuguese
Language                                 : Portuguese
Default                                  : No
Forced                                   : No

Text #24
ID                                       : 27
Format                                   : UTF-8
Codec ID                                 : S_TEXT/UTF8
Codec ID/Info                            : UTF-8 Plain Text
Duration                                 : 48 min 17 s
Bit rate                                 : 33 b/s
Count of elements                        : 472
Stream size                              : 11.8 KiB (0%)
Title                                    : Brazilian Portuguese
Language                                 : Portuguese
Default                                  : No
Forced                                   : No

Text #25
ID                                       : 28
Format                                   : UTF-8
Codec ID                                 : S_TEXT/UTF8
Codec ID/Info                            : UTF-8 Plain Text
Duration                                 : 48 min 17 s
Bit rate                                 : 38 b/s
Count of elements                        : 474
Stream size                              : 13.7 KiB (0%)
Title                                    : Romanian
Language                                 : Romanian
Default                                  : No
Forced                                   : No

Text #26
ID                                       : 29
Format                                   : UTF-8
Codec ID                                 : S_TEXT/UTF8
Codec ID/Info                            : UTF-8 Plain Text
Duration                                 : 48 min 17 s
Bit rate                                 : 55 b/s
Count of elements                        : 481
Stream size                              : 19.6 KiB (0%)
Title                                    : Russian
Language                                 : Russian
Default                                  : No
Forced                                   : No

Text #27
ID                                       : 30
Format                                   : UTF-8
Codec ID                                 : S_TEXT/UTF8
Codec ID/Info                            : UTF-8 Plain Text
Duration                                 : 48 min 17 s
Bit rate                                 : 36 b/s
Count of elements                        : 474
Stream size                              : 12.8 KiB (0%)
Title                                    : Spanish
Language                                 : Spanish
Default                                  : No
Forced                                   : No

Text #28
ID                                       : 31
Format                                   : UTF-8
Codec ID                                 : S_TEXT/UTF8
Codec ID/Info                            : UTF-8 Plain Text
Duration                                 : 48 min 17 s
Bit rate                                 : 34 b/s
Count of elements                        : 470
Stream size                              : 12.2 KiB (0%)
Title                                    : European Spanish
Language                                 : Spanish
Default                                  : No
Forced                                   : No

Text #29
ID                                       : 32
Format                                   : UTF-8
Codec ID                                 : S_TEXT/UTF8
Codec ID/Info                            : UTF-8 Plain Text
Duration                                 : 48 min 17 s
Bit rate                                 : 32 b/s
Count of elements                        : 471
Stream size                              : 11.4 KiB (0%)
Title                                    : Swedish
Language                                 : Swedish
Default                                  : No
Forced                                   : No

Text #30
ID                                       : 33
Format                                   : UTF-8
Codec ID                                 : S_TEXT/UTF8
Codec ID/Info                            : UTF-8 Plain Text
Duration                                 : 48 min 17 s
Bit rate                                 : 88 b/s
Count of elements                        : 481
Stream size                              : 31.4 KiB (0%)
Title                                    : Thai
Language                                 : Thai
Default                                  : No
Forced                                   : No

Text #31
ID                                       : 34
Format                                   : UTF-8
Codec ID                                 : S_TEXT/UTF8
Codec ID/Info                            : UTF-8 Plain Text
Duration                                 : 48 min 17 s
Bit rate                                 : 34 b/s
Count of elements                        : 477
Stream size                              : 12.4 KiB (0%)
Title                                    : Turkish
Language                                 : Turkish
Default                                  : No
Forced                                   : No

Text #32
ID                                       : 35
Format                                   : UTF-8
Codec ID                                 : S_TEXT/UTF8
Codec ID/Info                            : UTF-8 Plain Text
Duration                                 : 46 min 51 s
Bit rate                                 : 62 b/s
Count of elements                        : 480
Stream size                              : 21.3 KiB (0%)
Title                                    : Ukrainian
Language                                 : Ukrainian
Default                                  : No
Forced                                   : No

Text #33
ID                                       : 36
Format                                   : UTF-8
Codec ID                                 : S_TEXT/UTF8
Codec ID/Info                            : UTF-8 Plain Text
Duration                                 : 48 min 17 s
Bit rate                                 : 48 b/s
Count of elements                        : 479
Stream size                              : 17.3 KiB (0%)
Title                                    : Vietnamese
Language                                 : Vietnamese
Default                                  : No
Forced                                   : No

Readme/Password

Password & My Message

Screenshots