Fast Download Mirrors

David Attenborough’s Global Adventure (2021) • TVSeries

David Attenborough's Global Adventure (2021) • TVSeries

From the deep oceans in a state-of-the-art submarine on the Great Barrier Reef, to the ancient rainforests of Borneo, David Attenborough embarks on a unique natural history adventure across the globe and through time.

Mirrors: MirrorAce, MultiUp, Gdrive[GDTOT, Sharer], 1fichier
Format: MKV
Credits: CBFM
Info - https://www.tvmaze.com/shows/57699/david-attenboroughs-global-adventure

Download – [Single File]

David.Attenboroughs.Global.Adventure.S01E01.1080p.HDTV.H264-CBFM.mkv	1.25 GB
David.Attenboroughs.Global.Adventure.S01E02.1080p.HDTV.H264-CBFM.mkv	1.18 GB
David.Attenboroughs.Global.Adventure.S01E03.1080p.HDTV.H264-CBFM.mkv	1.27 GB
Video
ID : 1
Format : AVC
Format/Info : Advanced Video Codec
Format profile : High@L4
Format settings : CABAC / 4 Ref Frames
Format settings, CABAC : Yes
Format settings, Reference frames : 4 frames
Codec ID : V_MPEG4/ISO/AVC
Duration : 49 min 53 s
Bit rate : 3 396 kb/s
Width : 1 920 pixels
Height : 1 080 pixels
Display aspect ratio : 16:9
Frame rate mode : Constant
Frame rate : 25.000 FPS
Standard : Component
Color space : YUV
Chroma subsampling : 4:2:0
Bit depth : 8 bits
Scan type : MBAFF
Scan type, store method : Interleaved fields
Scan order : Top Field First
Bits/(Pixel*Frame) : 0.066
Stream size : 1.18 GiB (93%)
Default : Yes
Forced : No
Color range : Limited

Audio
ID : 2
Format : MPEG Audio
Format version : Version 1
Format profile : Layer 2
Codec ID : A_MPEG/L2
Codec ID/Hint : MP2
Duration : 49 min 53 s
Bit rate mode : Constant
Bit rate : 256 kb/s
Channel(s) : 2 channels
Sampling rate : 48.0 kHz
Frame rate : 41.667 FPS (1152 SPF)
Compression mode : Lossy
Stream size : 91.3 MiB (7%)
Language : English
Default : Yes
Forced : No

Text
ID : 3
Format : UTF-8
Codec ID : S_TEXT/UTF8
Codec ID/Info : UTF-8 Plain Text
Duration : 49 min 27 s
Bit rate : 93 b/s
Count of elements : 733
Stream size : 33.7 KiB (0%)
Language : English
Default : No
Forced : No

Readme

Password & My Message

Screenshots