Fast Download Mirrors

Dawn of the Planet of the Apes (2014) • Movie | UHD.BluRay.2160p.DTS-HD.MA.7.1.HEVC.REMUX-FraMeSToR [37.48 GB]

Dawn of the Planet of the Apes Action, Adventure, Drama, Sci-Fi | July 11, 2014 (United States) Summary: A growing nation of genetically evolved apes led by Caesar is threatened by a band of human survivors of the devastating virus unleashed a decade earlier.
Countries: United States, United Kingdom, CanadaLanguages: English, American Sign Language

A group of scientists in San Francisco struggle to stay alive in the aftermath of a plague that is wiping out humanity, while Caesar tries to maintain dominance over his community of intelligent apes.

Mirrors: GDrive [Gadrive, GDToT, Index, Sharer], MultiUp
Format: MKV
Credits: FraMeSToR

Download

General
Complete name : Dawn.of.the.Planet.of.the.Apes.2014.UHD.BluRay.2160p.DTS-HD.MA.7.1.HEVC.REMUX-FraMeSToR.mkv
Format : Matroska
Format version : Version 4
File size : 37.5 GiB
Duration : 2 h 10 min
Overall bit rate mode : Variable
Overall bit rate : 41.2 Mb/s
Encoded date : UTC 2017-11-22 21:30:04
Writing application : mkvmerge v18.0.0 ('Apricity') 64-bit
Writing library : libebml v1.3.5 + libmatroska v1.4.8

Video
ID : 1
Format : HEVC
Format/Info : High Efficiency Video Coding
Format profile : Main 10@L5.1@High
HDR format : SMPTE ST 2086, HDR10 compatible
Codec ID : V_MPEGH/ISO/HEVC
Duration : 2 h 10 min
Bit rate : 35.0 Mb/s
Width : 3 840 pixels
Height : 2 160 pixels
Display aspect ratio : 16:9
Frame rate mode : Constant
Frame rate : 23.976 (24000/1001) FPS
Color space : YUV
Chroma subsampling : 4:2:0 (Type 2)
Bit depth : 10 bits
Bits/(Pixel*Frame) : 0.176
Stream size : 31.8 GiB (85%)
Writing library : ATEME Titan File 3.7.8 (4.7.8.0)
Default : Yes
Forced : No
Color range : Limited
Color primaries : BT.2020
Transfer characteristics : PQ
Matrix coefficients : BT.2020 non-constant
Mastering display color primaries : Display P3
Mastering display luminance : min: 0.0000 cd/m2, max: 1000 cd/m2

Audio #1
ID : 2
Format : DTS ES XLL
Format/Info : Digital Theater Systems
Commercial name : DTS-HD Master Audio
Codec ID : A_DTS
Duration : 2 h 10 min
Bit rate mode : Variable
Bit rate : 5 102 kb/s
Channel(s) : 8 channels
Channel layout : C L R Ls Rs LFE Lb Rb
Sampling rate : 48.0 kHz
Frame rate : 93.750 FPS (512 SPF)
Bit depth : 24 bits
Compression mode : Lossless
Stream size : 4.65 GiB (12%)
Title : DTS-HD MA 7.1
Language : English
Default : Yes
Forced : No

Audio #2
ID : 3
Format : AC-3
Format/Info : Audio Coding 3
Commercial name : Dolby Digital
Codec ID : A_AC3
Duration : 2 h 10 min
Bit rate mode : Constant
Bit rate : 224 kb/s
Channel(s) : 2 channels
Channel layout : L R
Sampling rate : 48.0 kHz
Frame rate : 31.250 FPS (1536 SPF)
Compression mode : Lossy
Stream size : 209 MiB (1%)
Title : Commentary by Director Matt Reeves
Language : English
Service kind : Complete Main
Default : No
Forced : No

Text #1
ID : 4
Format : PGS
Codec ID : S_HDMV/PGS
Codec ID/Info : Picture based subtitle format used on BDs/HD-DVDs
Duration : 1 h 40 min
Bit rate : 1 873 b/s
Count of elements : 252
Stream size : 1.34 MiB (0%)
Title : English (Forced only)
Language : English
Default : Yes
Forced : Yes

Text #2
ID : 5
Format : PGS
Codec ID : S_HDMV/PGS
Codec ID/Info : Picture based subtitle format used on BDs/HD-DVDs
Duration : 1 h 58 min
Bit rate : 22.9 kb/s
Count of elements : 2562
Stream size : 19.5 MiB (0%)
Title : English (SDH)
Language : English
Default : No
Forced : No

Text #3
ID : 6
Format : PGS
Codec ID : S_HDMV/PGS
Codec ID/Info : Picture based subtitle format used on BDs/HD-DVDs
Duration : 2 h 9 min
Bit rate : 14.4 kb/s
Count of elements : 1716
Stream size : 13.3 MiB (0%)
Title : Spanish (Latin American)
Language : Spanish
Default : No
Forced : No

Text #4
ID : 7
Format : PGS
Codec ID : S_HDMV/PGS
Codec ID/Info : Picture based subtitle format used on BDs/HD-DVDs
Duration : 2 h 9 min
Bit rate : 11.7 kb/s
Count of elements : 1574
Stream size : 10.8 MiB (0%)
Title : French
Language : French
Default : No
Forced : No

Text #5
ID : 8
Format : PGS
Codec ID : S_HDMV/PGS
Codec ID/Info : Picture based subtitle format used on BDs/HD-DVDs
Duration : 2 h 9 min
Bit rate : 13.7 kb/s
Count of elements : 1728
Stream size : 12.7 MiB (0%)
Title : Spanish (Castilian)
Language : Spanish
Default : No
Forced : No

Text #6
ID : 9
Format : PGS
Codec ID : S_HDMV/PGS
Codec ID/Info : Picture based subtitle format used on BDs/HD-DVDs
Duration : 2 h 9 min
Bit rate : 13.2 kb/s
Count of elements : 1626
Stream size : 12.2 MiB (0%)
Title : Danish
Language : Danish
Default : No
Forced : No

Text #7
ID : 10
Format : PGS
Codec ID : S_HDMV/PGS
Codec ID/Info : Picture based subtitle format used on BDs/HD-DVDs
Duration : 2 h 9 min
Bit rate : 12.1 kb/s
Count of elements : 1532
Stream size : 11.2 MiB (0%)
Title : Dutch
Language : Dutch
Default : No
Forced : No

Text #8
ID : 11
Format : PGS
Codec ID : S_HDMV/PGS
Codec ID/Info : Picture based subtitle format used on BDs/HD-DVDs
Duration : 2 h 9 min
Bit rate : 12.3 kb/s
Count of elements : 1688
Stream size : 11.4 MiB (0%)
Title : Finnish
Language : Finnish
Default : No
Forced : No

Text #9
ID : 12
Format : PGS
Codec ID : S_HDMV/PGS
Codec ID/Info : Picture based subtitle format used on BDs/HD-DVDs
Duration : 2 h 9 min
Bit rate : 14.8 kb/s
Count of elements : 1704
Stream size : 13.7 MiB (0%)
Title : German
Language : German
Default : No
Forced : No

Text #10
ID : 13
Format : PGS
Codec ID : S_HDMV/PGS
Codec ID/Info : Picture based subtitle format used on BDs/HD-DVDs
Duration : 2 h 9 min
Bit rate : 13.4 kb/s
Count of elements : 1754
Stream size : 12.4 MiB (0%)
Title : Italian
Language : Italian
Default : No
Forced : No

Text #11
ID : 14
Format : PGS
Codec ID : S_HDMV/PGS
Codec ID/Info : Picture based subtitle format used on BDs/HD-DVDs
Duration : 2 h 9 min
Bit rate : 9 641 b/s
Count of elements : 1526
Stream size : 8.91 MiB (0%)
Title : Japanese
Language : Japanese
Default : No
Forced : No

Text #12
ID : 15
Format : PGS
Codec ID : S_HDMV/PGS
Codec ID/Info : Picture based subtitle format used on BDs/HD-DVDs
Duration : 2 h 9 min
Bit rate : 13.3 kb/s
Count of elements : 1746
Stream size : 12.3 MiB (0%)
Title : Norwegian
Language : Norwegian
Default : No
Forced : No

Text #13
ID : 16
Format : PGS
Codec ID : S_HDMV/PGS
Codec ID/Info : Picture based subtitle format used on BDs/HD-DVDs
Duration : 2 h 9 min
Bit rate : 13.5 kb/s
Count of elements : 1750
Stream size : 12.5 MiB (0%)
Title : Swedish
Language : Swedish
Default : No
Forced : No

Text #14
ID : 17
Format : PGS
Codec ID : S_HDMV/PGS
Codec ID/Info : Picture based subtitle format used on BDs/HD-DVDs
Duration : 2 h 9 min
Bit rate : 11.0 kb/s
Count of elements : 1764
Stream size : 10.2 MiB (0%)
Title : Chinese (Cantonese)
Language : Chinese
Default : No
Forced : No

Text #15
ID : 18
Format : PGS
Codec ID : S_HDMV/PGS
Codec ID/Info : Picture based subtitle format used on BDs/HD-DVDs
Duration : 2 h 9 min
Bit rate : 11.0 kb/s
Count of elements : 1825
Stream size : 10.2 MiB (0%)
Title : Chinese (Mandarin Simplified)
Language : Chinese
Default : No
Forced : No

Text #16
ID : 19
Format : PGS
Codec ID : S_HDMV/PGS
Codec ID/Info : Picture based subtitle format used on BDs/HD-DVDs
Duration : 2 h 1 min
Bit rate : 77.9 kb/s
Count of elements : 4148
Stream size : 67.8 MiB (0%)
Title : English (Commentary)
Language : English
Default : No
Forced : No

Text #17
ID : 20
Format : PGS
Codec ID : S_HDMV/PGS
Codec ID/Info : Picture based subtitle format used on BDs/HD-DVDs
Duration : 2 h 9 min
Bit rate : 63.2 kb/s
Count of elements : 4042
Stream size : 58.7 MiB (0%)
Title : French (Commentary)
Language : French
Default : No
Forced : No

Text #18
ID : 21
Format : PGS
Codec ID : S_HDMV/PGS
Codec ID/Info : Picture based subtitle format used on BDs/HD-DVDs
Duration : 2 h 9 min
Bit rate : 62.9 kb/s
Count of elements : 4056
Stream size : 58.4 MiB (0%)
Title : Spanish (Commentary)
Language : Spanish
Default : No
Forced : No

Text #19
ID : 22
Format : PGS
Codec ID : S_HDMV/PGS
Codec ID/Info : Picture based subtitle format used on BDs/HD-DVDs
Duration : 2 h 9 min
Bit rate : 58.3 kb/s
Count of elements : 4054
Stream size : 54.1 MiB (0%)
Title : Danish (Commentary)
Language : Danish
Default : No
Forced : No

Text #20
ID : 23
Format : PGS
Codec ID : S_HDMV/PGS
Codec ID/Info : Picture based subtitle format used on BDs/HD-DVDs
Duration : 2 h 9 min
Bit rate : 61.7 kb/s
Count of elements : 4024
Stream size : 57.3 MiB (0%)
Title : Dutch (Commentary)
Language : Dutch
Default : No
Forced : No

Text #21
ID : 24
Format : PGS
Codec ID : S_HDMV/PGS
Codec ID/Info : Picture based subtitle format used on BDs/HD-DVDs
Duration : 2 h 9 min
Bit rate : 61.6 kb/s
Count of elements : 4054
Stream size : 57.2 MiB (0%)
Title : Finnish (Commentary)
Language : Finnish
Default : No
Forced : No

Text #22
ID : 25
Format : PGS
Codec ID : S_HDMV/PGS
Codec ID/Info : Picture based subtitle format used on BDs/HD-DVDs
Duration : 2 h 9 min
Bit rate : 67.0 kb/s
Count of elements : 4052
Stream size : 62.2 MiB (0%)
Title : German (Commentary)
Language : German
Default : No
Forced : No

Text #23
ID : 26
Format : PGS
Codec ID : S_HDMV/PGS
Codec ID/Info : Picture based subtitle format used on BDs/HD-DVDs
Duration : 2 h 9 min
Bit rate : 59.6 kb/s
Count of elements : 4056
Stream size : 55.3 MiB (0%)
Title : Italian (Commentary)
Language : Italian
Default : No
Forced : No

Text #24
ID : 27
Format : PGS
Codec ID : S_HDMV/PGS
Codec ID/Info : Picture based subtitle format used on BDs/HD-DVDs
Duration : 2 h 9 min
Bit rate : 38.6 kb/s
Count of elements : 2960
Stream size : 35.9 MiB (0%)
Title : Japanese (Commentary)
Language : Japanese
Default : No
Forced : No

Text #25
ID : 28
Format : PGS
Codec ID : S_HDMV/PGS
Codec ID/Info : Picture based subtitle format used on BDs/HD-DVDs
Duration : 2 h 9 min
Bit rate : 61.8 kb/s
Count of elements : 4054
Stream size : 57.3 MiB (0%)
Title : Norwegian (Commentary)
Language : Norwegian
Default : No
Forced : No

Text #26
ID : 29
Format : PGS
Codec ID : S_HDMV/PGS
Codec ID/Info : Picture based subtitle format used on BDs/HD-DVDs
Duration : 2 h 9 min
Bit rate : 62.2 kb/s
Count of elements : 4056
Stream size : 57.8 MiB (0%)
Title : Swedish (Commentary)
Language : Swedish
Default : No
Forced : No

Menu
00:00:00.000 : en:Chapter 01
00:03:21.159 : en:Chapter 02
00:07:34.913 : en:Chapter 03
00:12:36.547 : en:Chapter 04
00:16:23.566 : en:Chapter 05
00:18:47.043 : en:Chapter 06
00:21:52.478 : en:Chapter 07
00:25:26.692 : en:Chapter 08
00:29:45.867 : en:Chapter 09
00:31:50.617 : en:Chapter 10
00:36:43.743 : en:Chapter 11
00:39:07.554 : en:Chapter 12
00:40:57.163 : en:Chapter 13
00:44:12.233 : en:Chapter 14
00:48:11.138 : en:Chapter 15
00:50:31.528 : en:Chapter 16
00:53:48.016 : en:Chapter 17
00:57:25.317 : en:Chapter 18
01:01:18.466 : en:Chapter 19
01:02:35.377 : en:Chapter 20
01:04:24.069 : en:Chapter 21
01:06:21.728 : en:Chapter 22
01:09:31.334 : en:Chapter 23
01:13:56.974 : en:Chapter 24
01:17:17.925 : en:Chapter 25
01:20:53.390 : en:Chapter 26
01:23:28.754 : en:Chapter 27
01:26:08.997 : en:Chapter 28
01:28:19.252 : en:Chapter 29
01:33:24.390 : en:Chapter 30
01:35:53.122 : en:Chapter 31
01:38:38.621 : en:Chapter 32
01:40:42.536 : en:Chapter 33
01:44:07.533 : en:Chapter 34
01:46:05.317 : en:Chapter 35
01:47:54.468 : en:Chapter 36
01:52:13.769 : en:Chapter 37
01:56:27.480 : en:Chapter 38
02:00:31.015 : en:Chapter 39
02:01:35.038 : en:Chapter 40

Readme/Password

Password & My Message