Fast Download Mirrors

Don’t Breathe 2 (2021) • Movie | 2160p.UHD.Remux.HEVC.HDR.TrueHD.Atmos.7.1-playBD [43.5GB]

Don't Breathe 2 (2021)
Don't Breathe 2 98min | Horror, Thriller | August 13, 2021 (United States) Summary: The sequel is set in the years following the initial deadly home invasion, where Norman Nordstrom (Stephen Lang) lives in quiet solace until his past sins catch up to him.
Countries: United States, SerbiaLanguages: English

The Blind Man has been hiding out for several years in an isolated cabin and has taken in and raised a young girl orphaned from a devastating house fire. Their quiet life together is shattered when a group of criminals kidnap the girl, forcing the Blind Man to leave his safe haven to save her.

Mirrors: 1fichier, MultiUp, Gdrive[GDTOT, Sharer], Gdrive Index
Format: MKV
Credits: playBD

Download

Complete name : Don't.Breathe.2.2021.2160p.UHD.Remux.HEVC.HDR.TrueHD.Atmos.7.1-playBD.mkv
Format : Matroska
Format version : Version 4
File size : 43.6 GiB
Duration : 1 h 38 min
Overall bit rate mode : Variable
Overall bit rate : 63.5 Mb/s
Encoded date : UTC 2021-10-25 10:57:39
Writing application : mkvmerge v62.0.0 ('Apollo') 64-bit
Writing library : libebml v1.4.2 + libmatroska v1.6.4

Video
ID : 1
Format : HEVC
Format/Info : High Efficiency Video Coding
Format profile : Main 10@L5.1@High
HDR format : SMPTE ST 2086, HDR10 compatible
Codec ID : V_MPEGH/ISO/HEVC
Duration : 1 h 38 min
Bit rate : 57.9 Mb/s
Width : 3 840 pixels
Height : 2 160 pixels
Display aspect ratio : 16:9
Frame rate mode : Constant
Frame rate : 23.976 (24000/1001) FPS
Color space : YUV
Chroma subsampling : 4:2:0 (Type 2)
Bit depth : 10 bits
Bits/(Pixel*Frame) : 0.291
Stream size : 39.7 GiB (91%)
Default : Yes
Forced : No
Color range : Limited
Color primaries : BT.2020
Transfer characteristics : PQ
Matrix coefficients : BT.2020 non-constant
Mastering display color primaries : BT.2020
Mastering display luminance : min: 0.0001 cd/m2, max: 1000 cd/m2
Maximum Content Light Level : 995 cd/m2
Maximum Frame-Average Light Level : 372 cd/m2

Audio #1
ID : 2
Format : MLP FBA 16-ch
Format/Info : Meridian Lossless Packing FBA with 16-channel presentation
Commercial name : Dolby TrueHD with Dolby Atmos
Codec ID : A_TRUEHD
Duration : 1 h 38 min
Bit rate mode : Variable
Bit rate : 4 174 kb/s
Maximum bit rate : 7 536 kb/s
Channel(s) : 8 channels
Channel layout : L R C LFE Ls Rs Lb Rb
Sampling rate : 48.0 kHz
Frame rate : 1 200.000 FPS (40 SPF)
Compression mode : Lossless
Stream size : 2.86 GiB (7%)
Language : English
Default : Yes
Forced : No
Number of dynamic objects : 11
Bed channel count : 1 channel
Bed channel configuration : LFE

Audio #2
ID : 3
Format : AC-3
Format/Info : Audio Coding 3
Commercial name : Dolby Digital
Codec ID : A_AC3
Duration : 1 h 38 min
Bit rate mode : Constant
Bit rate : 640 kb/s
Channel(s) : 6 channels
Channel layout : L R C LFE Ls Rs
Sampling rate : 48.0 kHz
Frame rate : 31.250 FPS (1536 SPF)
Compression mode : Lossy
Stream size : 450 MiB (1%)
Language : English
Service kind : Complete Main
Default : Yes
Forced : No

Audio #3
ID : 4
Format : AC-3
Format/Info : Audio Coding 3
Commercial name : Dolby Digital
Codec ID : A_AC3
Duration : 1 h 38 min
Bit rate mode : Constant
Bit rate : 192 kb/s
Channel(s) : 2 channels
Channel layout : L R
Sampling rate : 48.0 kHz
Frame rate : 31.250 FPS (1536 SPF)
Compression mode : Lossy
Stream size : 135 MiB (0%)
Title : Commentary with Rodo Sayagues
Language : English
Service kind : Complete Main
Default : No
Forced : No

Text #1
ID : 5
Format : UTF-8
Codec ID : S_TEXT/UTF8
Codec ID/Info : UTF-8 Plain Text
Duration : 1 h 28 min
Bit rate : 17 b/s
Count of elements : 484
Stream size : 11.2 KiB (0%)
Language : Romanian
Default : Yes
Forced : No

Text #2
ID : 6
Format : PGS
Codec ID : S_HDMV/PGS
Codec ID/Info : Picture based subtitle format used on BDs/HD-DVDs
Duration : 1 h 30 min
Bit rate : 14.9 kb/s
Count of elements : 1466
Stream size : 9.67 MiB (0%)
Language : English
Default : No
Forced : No

Text #3
ID : 7
Format : PGS
Codec ID : S_HDMV/PGS
Codec ID/Info : Picture based subtitle format used on BDs/HD-DVDs
Duration : 1 h 26 min
Bit rate : 9 894 b/s
Count of elements : 986
Stream size : 6.15 MiB (0%)
Language : English
Default : No
Forced : No

Text #4
ID : 8
Format : PGS
Codec ID : S_HDMV/PGS
Codec ID/Info : Picture based subtitle format used on BDs/HD-DVDs
Duration : 1 h 36 min
Bit rate : 7 679 b/s
Count of elements : 918
Stream size : 5.29 MiB (0%)
Language : Chinese
Default : No
Forced : No

Text #5
ID : 9
Format : PGS
Codec ID : S_HDMV/PGS
Codec ID/Info : Picture based subtitle format used on BDs/HD-DVDs
Duration : 1 h 36 min
Bit rate : 7 595 b/s
Count of elements : 914
Stream size : 5.23 MiB (0%)
Language : Chinese
Default : No
Forced : No

Text #6
ID : 10
Format : PGS
Codec ID : S_HDMV/PGS
Codec ID/Info : Picture based subtitle format used on BDs/HD-DVDs
Duration : 1 h 36 min
Bit rate : 7 190 b/s
Count of elements : 916
Stream size : 4.95 MiB (0%)
Language : Chinese
Default : No
Forced : No

Text #7
ID : 11
Format : PGS
Codec ID : S_HDMV/PGS
Codec ID/Info : Picture based subtitle format used on BDs/HD-DVDs
Duration : 1 h 36 min
Bit rate : 8 093 b/s
Count of elements : 846
Stream size : 5.57 MiB (0%)
Language : French
Default : No
Forced : No

Text #8
ID : 12
Format : PGS
Codec ID : S_HDMV/PGS
Codec ID/Info : Picture based subtitle format used on BDs/HD-DVDs
Duration : 1 h 36 min
Bit rate : 9 795 b/s
Count of elements : 906
Stream size : 6.74 MiB (0%)
Language : Indonesian
Default : No
Forced : No

Text #9
ID : 13
Format : PGS
Codec ID : S_HDMV/PGS
Codec ID/Info : Picture based subtitle format used on BDs/HD-DVDs
Duration : 1 h 36 min
Bit rate : 7 309 b/s
Count of elements : 924
Stream size : 5.03 MiB (0%)
Language : Korean
Default : No
Forced : No

Text #10
ID : 14
Format : PGS
Codec ID : S_HDMV/PGS
Codec ID/Info : Picture based subtitle format used on BDs/HD-DVDs
Duration : 1 h 36 min
Bit rate : 10.4 kb/s
Count of elements : 910
Stream size : 7.16 MiB (0%)
Language : Malay
Default : No
Forced : No

Text #11
ID : 15
Format : PGS
Codec ID : S_HDMV/PGS
Codec ID/Info : Picture based subtitle format used on BDs/HD-DVDs
Duration : 1 h 36 min
Bit rate : 9 196 b/s
Count of elements : 890
Stream size : 6.33 MiB (0%)
Language : Portuguese
Default : No
Forced : No

Text #12
ID : 16
Format : PGS
Codec ID : S_HDMV/PGS
Codec ID/Info : Picture based subtitle format used on BDs/HD-DVDs
Duration : 1 h 36 min
Bit rate : 9 040 b/s
Count of elements : 896
Stream size : 6.22 MiB (0%)
Language : Spanish
Default : No
Forced : No

Text #13
ID : 17
Format : PGS
Codec ID : S_HDMV/PGS
Codec ID/Info : Picture based subtitle format used on BDs/HD-DVDs
Duration : 1 h 36 min
Bit rate : 8 157 b/s
Count of elements : 914
Stream size : 5.62 MiB (0%)
Language : Thai
Default : No
Forced : No

Text #14
ID : 18
Format : PGS
Codec ID : S_HDMV/PGS
Codec ID/Info : Picture based subtitle format used on BDs/HD-DVDs
Duration : 1 h 36 min
Bit rate : 71 b/s
Count of elements : 6
Stream size : 50.6 KiB (0%)
Language : French
Default : No
Forced : No

Text #15
ID : 19
Format : PGS
Codec ID : S_HDMV/PGS
Codec ID/Info : Picture based subtitle format used on BDs/HD-DVDs
Duration : 1 h 31 min
Bit rate : 37.5 kb/s
Count of elements : 2317
Stream size : 24.6 MiB (0%)
Language : English
Default : No
Forced : No

Text #16
ID : 20
Format : PGS
Codec ID : S_HDMV/PGS
Codec ID/Info : Picture based subtitle format used on BDs/HD-DVDs
Duration : 1 h 31 min
Bit rate : 28.7 kb/s
Count of elements : 2050
Stream size : 18.8 MiB (0%)
Language : Chinese
Default : No
Forced : No

Text #17
ID : 21
Format : PGS
Codec ID : S_HDMV/PGS
Codec ID/Info : Picture based subtitle format used on BDs/HD-DVDs
Duration : 1 h 31 min
Bit rate : 26.3 kb/s
Count of elements : 2050
Stream size : 17.2 MiB (0%)
Language : Korean
Default : No
Forced : No

Text #18
ID : 22
Format : PGS
Codec ID : S_HDMV/PGS
Codec ID/Info : Picture based subtitle format used on BDs/HD-DVDs
Duration : 1 h 31 min
Bit rate : 32.5 kb/s
Count of elements : 1980
Stream size : 21.3 MiB (0%)
Language : Portuguese
Default : No
Forced : No

Text #19
ID : 23
Format : PGS
Codec ID : S_HDMV/PGS
Codec ID/Info : Picture based subtitle format used on BDs/HD-DVDs
Duration : 1 h 31 min
Bit rate : 32.4 kb/s
Count of elements : 2034
Stream size : 21.2 MiB (0%)
Language : Spanish
Default : No
Forced : No

Text #20
ID : 24
Format : PGS
Codec ID : S_HDMV/PGS
Codec ID/Info : Picture based subtitle format used on BDs/HD-DVDs
Duration : 1 h 31 min
Bit rate : 32.8 kb/s
Count of elements : 2050
Stream size : 21.5 MiB (0%)
Language : Thai
Default : No
Forced : No

Text #21
ID : 25
Format : PGS
Codec ID : S_HDMV/PGS
Codec ID/Info : Picture based subtitle format used on BDs/HD-DVDs
Duration : 1 h 31 min
Bit rate : 66.3 kb/s
Count of elements : 3264
Stream size : 43.3 MiB (0%)
Language : English
Default : No
Forced : No

Text #22
ID : 26
Format : PGS
Codec ID : S_HDMV/PGS
Codec ID/Info : Picture based subtitle format used on BDs/HD-DVDs
Duration : 1 h 30 min
Bit rate : 50.1 kb/s
Count of elements : 3190
Stream size : 32.6 MiB (0%)
Language : Chinese
Default : No
Forced : No

Text #23
ID : 27
Format : PGS
Codec ID : S_HDMV/PGS
Codec ID/Info : Picture based subtitle format used on BDs/HD-DVDs
Duration : 1 h 30 min
Bit rate : 46.1 kb/s
Count of elements : 3190
Stream size : 29.9 MiB (0%)
Language : Korean
Default : No
Forced : No

Text #24
ID : 28
Format : PGS
Codec ID : S_HDMV/PGS
Codec ID/Info : Picture based subtitle format used on BDs/HD-DVDs
Duration : 1 h 30 min
Bit rate : 53.2 kb/s
Count of elements : 3105
Stream size : 34.6 MiB (0%)
Language : Portuguese
Default : No
Forced : No

Text #25
ID : 29
Format : PGS
Codec ID : S_HDMV/PGS
Codec ID/Info : Picture based subtitle format used on BDs/HD-DVDs
Duration : 1 h 30 min
Bit rate : 55.5 kb/s
Count of elements : 3190
Stream size : 36.0 MiB (0%)
Language : Thai
Default : No
Forced : No

Menu
00:00:00.000 : en:Chapter 01
00:04:06.371 : en:Chapter 02
00:08:39.477 : en:Chapter 03
00:13:10.790 : en:Chapter 04
00:19:12.777 : en:Chapter 05
00:24:10.658 : en:Chapter 06
00:28:03.891 : en:Chapter 07
00:31:33.934 : en:Chapter 08
00:37:15.108 : en:Chapter 09
00:41:25.942 : en:Chapter 10
00:45:21.928 : en:Chapter 11
00:50:37.243 : en:Chapter 12
00:55:42.798 : en:Chapter 13
01:02:19.861 : en:Chapter 14
01:09:26.537 : en:Chapter 15
01:18:19.653 : en:Chapter 16
01:31:47.293 : en:Chapter 17

Readme/Password

Password & My Message