Fast Download Mirrors

Doug Unplugs (2020-) • TVSeries

Doug Unplugs (2020-) • TVSeries
Doug Unplugs 660min | Animation, Family | November 13, 2020 (United States) Summary: Hailing from DreamWorks Animation and based on Dan Yaccarino's "Doug Unplugged" book series, "Doug Unplugs" follows a young robot named Doug who senses there's more to life than just the fac... Read all
Countries: United StatesLanguages: English

Doug is a young robot who senses there’s more to life than just the facts. While other robots plug in for their daily download, Doug unplugs and journeys into the human world with his best friend Emma to experience its wonders firsthand.

Mirrors: MultiUp, Gdrive[GDTOT], 1fichier
Format: MKV
Credits: Telly
Season(1-2) Complete

Download – [Single Files][Web-DL]

General
------------------
Filename.......: Doug.Unplugs.S01E01.A.Whole.Bot.of.Fun.Volunteer.Bot.1080p.ATVP.WEB-DL.DD5.1.H.264-Telly.mkv
Container......: Matroska
Duration.......: 23 min 7 s
Size...........: 1.82 GiB
------------------

Video #0
Codec..........: AVC High@L4 8 bits
Resolution.....: 1920x1080
Aspect ratio...: 16:9 (1.778)
Bit rate.......: 9 758 kb/s
Frame rate.....: 23.976 (24000/1001) FPS
------------------
Audio #0
Title..........: Hindi
Format.........: AC-3
Channels.......: 6 channels
Bit rate.......: 384 kb/s
Sampling rate..: 48.0 kHz
Language.......: Hindi


--------------------
Audio #1
Title..........: Audio Description
Format.........: AC-3
Channels.......: 6 channels
Bit rate.......: 384 kb/s
Sampling rate..: 48.0 kHz
Language.......: Hindi


--------------------
Audio #2
Title..........: English
Format.........: AC-3
Channels.......: 6 channels
Bit rate.......: 384 kb/s
Sampling rate..: 48.0 kHz
Language.......: English


--------------------
Audio #3
Title..........: Audio Description
Format.........: AC-3
Channels.......: 6 channels
Bit rate.......: 384 kb/s
Sampling rate..: 48.0 kHz
Language.......: English


--------------------

Subtitles......: UTF-8 English

Subtitles......: UTF-8 English
Screenshots

General
Unique ID                                : 128727142270275972981288296693085026509 (0x60D7F21FA53F9EF4C0AE92E079F4B8CD)
Complete name                            : Doug.Unplugs.S02E01.Bot.to.School.Bots.at.Play.1080p.ATVP.WEB-DL.DD+5.1.Atmos.H.264-Telly.mkv
Format                                   : Matroska
Format version                           : Version 4
File size                                : 1.94 GiB
Duration                                 : 23 min 7 s
Overall bit rate                         : 12.0 Mb/s
Movie name                               : Telly
Encoded date                             : UTC 2021-09-17 04:34:04
Writing application                      : mkvmerge v59.0.0 ('Shining Star') 64-bit
Writing library                          : libebml v1.4.2 + libmatroska v1.6.4

Video
ID                                       : 1
Format                                   : AVC
Format/Info                              : Advanced Video Codec
Format profile                           : High@L4
Format settings                          : CABAC / 4 Ref Frames
Format settings, CABAC                   : Yes
Format settings, ReFrames                : 4 frames
Codec ID                                 : V_MPEG4/ISO/AVC
Duration                                 : 23 min 7 s
Bit rate                                 : 9 677 kb/s
Width                                    : 1 920 pixels
Height                                   : 1 080 pixels
Display aspect ratio                     : 16:9
Frame rate mode                          : Constant
Frame rate                               : 23.976 (24000/1001) FPS
Color space                              : YUV
Chroma subsampling                       : 4:2:0
Bit depth                                : 8 bits
Scan type                                : Progressive
Bits/(Pixel*Frame)                       : 0.195
Stream size                              : 1.56 GiB (81%)
Language                                 : English
Default                                  : Yes
Forced                                   : No
Color range                              : Limited
Color primaries                          : BT.709
Transfer characteristics                 : BT.709
Matrix coefficients                      : BT.709

Audio #1
ID                                       : 2
Format                                   : AC-3
Format/Info                              : Audio Coding 3
Commercial name                          : Dolby Digital
Codec ID                                 : A_AC3
Duration                                 : 23 min 7 s
Bit rate mode                            : Constant
Bit rate                                 : 384 kb/s
Channel(s)                               : 6 channels
Channel layout                           : L R C LFE Ls Rs
Sampling rate                            : 48.0 kHz
Frame rate                               : 31.250 FPS (1536 SPF)
Bit depth                                : 16 bits
Compression mode                         : Lossy
Stream size                              : 63.5 MiB (3%)
Title                                    : Hindi
Language                                 : Hindi
Service kind                             : Complete Main
Default                                  : Yes
Forced                                   : No

Audio #2
ID                                       : 3
Format                                   : AC-3
Format/Info                              : Audio Coding 3
Commercial name                          : Dolby Digital
Codec ID                                 : A_AC3
Duration                                 : 23 min 7 s
Bit rate mode                            : Constant
Bit rate                                 : 384 kb/s
Channel(s)                               : 6 channels
Channel layout                           : L R C LFE Ls Rs
Sampling rate                            : 48.0 kHz
Frame rate                               : 31.250 FPS (1536 SPF)
Bit depth                                : 16 bits
Compression mode                         : Lossy
Stream size                              : 63.5 MiB (3%)
Title                                    : Audio Description
Language                                 : Hindi
Service kind                             : Complete Main
Default                                  : No
Forced                                   : No

Audio #3
ID                                       : 4
Format                                   : E-AC-3 JOC
Format/Info                              : Enhanced AC-3 with Joint Object Coding
Commercial name                          : Dolby Digital Plus with Dolby Atmos
Codec ID                                 : A_EAC3
Duration                                 : 23 min 7 s
Bit rate mode                            : Constant
Bit rate                                 : 768 kb/s
Channel(s)                               : 6 channels
Channel layout                           : L R C LFE Ls Rs
Sampling rate                            : 48.0 kHz
Frame rate                               : 31.250 FPS (1536 SPF)
Compression mode                         : Lossy
Stream size                              : 127 MiB (6%)
Title                                    : English
Language                                 : English
Service kind                             : Complete Main
Default                                  : No
Forced                                   : No
Complexity index                         : 16
Number of dynamic objects                : 15
Bed channel count                        : 1 channel
Bed channel configuration                : LFE

Audio #4
ID                                       : 5
Format                                   : E-AC-3 JOC
Format/Info                              : Enhanced AC-3 with Joint Object Coding
Commercial name                          : Dolby Digital Plus with Dolby Atmos
Codec ID                                 : A_EAC3
Duration                                 : 23 min 7 s
Bit rate mode                            : Constant
Bit rate                                 : 768 kb/s
Channel(s)                               : 6 channels
Channel layout                           : L R C LFE Ls Rs
Sampling rate                            : 48.0 kHz
Frame rate                               : 31.250 FPS (1536 SPF)
Compression mode                         : Lossy
Stream size                              : 127 MiB (6%)
Title                                    : Audio Description
Language                                 : English
Service kind                             : Complete Main
Default                                  : No
Forced                                   : No
Complexity index                         : 16
Number of dynamic objects                : 15
Bed channel count                        : 1 channel
Bed channel configuration                : LFE

Text #1
ID                                       : 6
Format                                   : UTF-8
Codec ID                                 : S_TEXT/UTF8
Codec ID/Info                            : UTF-8 Plain Text
Duration                                 : 22 min 21 s
Bit rate                                 : 92 b/s
Count of elements                        : 433
Stream size                              : 15.1 KiB (0%)
Title                                    : English
Language                                 : English
Default                                  : No
Forced                                   : No

Text #2
ID                                       : 7
Format                                   : UTF-8
Codec ID                                 : S_TEXT/UTF8
Codec ID/Info                            : UTF-8 Plain Text
Duration                                 : 22 min 23 s
Bit rate                                 : 103 b/s
Count of elements                        : 471
Stream size                              : 17.0 KiB (0%)
Title                                    : SDH
Language                                 : English
Default                                  : No
Forced                                   : No

Text #3
ID                                       : 8
Format                                   : UTF-8
Codec ID                                 : S_TEXT/UTF8
Codec ID/Info                            : UTF-8 Plain Text
Duration                                 : 22 min 21 s
Bit rate                                 : 92 b/s
Count of elements                        : 433
Stream size                              : 15.1 KiB (0%)
Title                                    : English
Language                                 : English
Default                                  : No
Forced                                   : No

Text #4
ID                                       : 9
Format                                   : UTF-8
Codec ID                                 : S_TEXT/UTF8
Codec ID/Info                            : UTF-8 Plain Text
Duration                                 : 22 min 23 s
Bit rate                                 : 103 b/s
Count of elements                        : 471
Stream size                              : 17.0 KiB (0%)
Title                                    : SDH
Language                                 : English
Default                                  : No
Forced                                   : No
Screenshots

Readme

Password & My Message