Fast Download Mirrors

Dracula Untold (2014) • Movie | 2160p.ReMuX.HEVC.DTS-HD.MA.7.1-BiZKiT [48GB]

Dracula Untold (2014)
Dracula Untold | October 10, 2014 (United States) Summary:
Countries: United StatesLanguages: English, Turkish

Vlad Tepes is a great hero, but when he learns the Sultan is preparing for battle and needs to form an army of 1,000 boys, he vows to find a way to protect his family. Vlad turns to dark forces in order to get the power to destroy his enemies and agrees to go from hero to monster as he’s turned into the mythological vampire, Dracula.

Mirrors: Gdrive [GDToT], Mega
Format: MKV
Credits: BiZKiT

Download

Unique ID                                : 94266885992488173456071235876211161019 (0x46EB2450432CCA9FBD9BFF71AD1477BB)
Complete name                            : Dracula Untold 2014 2160p ReMuX HEVC DTS-HD MA 7.1-BiZKiT.mkv
Format                                   : Matroska
Format version                           : Version 4
File size                                : 48.7 GiB
Duration                                 : 1 h 32 min
Overall bit rate mode                    : Variable
Overall bit rate                         : 75.6 Mb/s
Encoded date                             : UTC 2020-01-10 20:23:50
Writing application                      : mkvmerge v42.0.0 ('Overtime') 64-bit
Writing library                          : libebml v1.3.10 + libmatroska v1.5.2

Video
ID                                       : 1
Format                                   : HEVC
Format/Info                              : High Efficiency Video Coding
Format profile                           : Main 10@L5.1@High
HDR format                               : SMPTE ST 2086, HDR10 compatible
Codec ID                                 : V_MPEGH/ISO/HEVC
Duration                                 : 1 h 32 min
Bit rate                                 : 70.4 Mb/s
Width                                    : 3 840 pixels
Height                                   : 2 160 pixels
Display aspect ratio                     : 16:9
Frame rate mode                          : Constant
Frame rate                               : 23.976 (24000/1001) FPS
Color space                              : YUV
Chroma subsampling                       : 4:2:0 (Type 2)
Bit depth                                : 10 bits
Bits/(Pixel*Frame)                       : 0.354
Stream size                              : 45.3 GiB (93%)
Title                                    : MPEG-H HEVC @ 70365 kbps (HDR10)
Default                                  : Yes
Forced                                   : No
Color range                              : Limited
Color primaries                          : BT.2020
Transfer characteristics                 : PQ
Matrix coefficients                      : BT.2020 non-constant
Mastering display color primaries        : Display P3
Mastering display luminance              : min: 0.0000 cd/m2, max: 1000 cd/m2

Audio
ID                                       : 2
Format                                   : DTS XLL X
Format/Info                              : Digital Theater Systems
Commercial name                          : DTS-HD Master Audio
Codec ID                                 : A_DTS
Duration                                 : 1 h 32 min
Bit rate mode                            : Variable
Bit rate                                 : 5 212 kb/s
Channel(s)                               : 8 channels
Channel(s)_Original                      : Object Based
ChannelLayout_Original                   : Object Based
Sampling rate                            : 48.0 kHz
Frame rate                               : 93.750 FPS (512 SPF)
Bit depth                                : 24 bits
Stream size                              : 3.36 GiB (7%)
Title                                    : DTS-HD MA 7.1 (DTS:X) @ 5212 kbps / 24-bit
Language                                 : English
Default                                  : Yes
Forced                                   : No

Text #1
ID                                       : 3
Format                                   : UTF-8
Codec ID                                 : S_TEXT/UTF8
Codec ID/Info                            : UTF-8 Plain Text
Duration                                 : 6 min 39 s
Bit rate                                 : 6 b/s
Count of elements                        : 9
Stream size                              : 334 Bytes (0%)
Title                                    : English [for Turkish spoken parts]
Language                                 : English
Default                                  : Yes
Forced                                   : No

Text #2
ID                                       : 4
Format                                   : UTF-8
Codec ID                                 : S_TEXT/UTF8
Codec ID/Info                            : UTF-8 Plain Text
Duration                                 : 1 h 24 min
Bit rate                                 : 31 b/s
Count of elements                        : 704
Stream size                              : 19.2 KiB (0%)
Language                                 : English
Default                                  : No
Forced                                   : No

Menu
00:00:00.000                             : :Chapter 01
00:04:08.290                             : :Chapter 02
00:07:21.566                             : :Chapter 03
00:11:33.818                             : :Chapter 04
00:16:31.699                             : :Chapter 05
00:22:54.665                             : :Chapter 06
00:30:24.448                             : :Chapter 07
00:34:17.764                             : :Chapter 08
00:38:58.044                             : :Chapter 09
00:43:01.370                             : :Chapter 10
00:47:04.739                             : :Chapter 11
00:53:17.736                             : :Chapter 12
00:57:40.832                             : :Chapter 13
01:00:48.311                             : :Chapter 14
01:04:31.034                             : :Chapter 15
01:09:13.191                             : :Chapter 16
01:12:48.614                             : :Chapter 17
01:17:12.878                             : :Chapter 18
01:21:53.659                             : :Chapter 19
01:25:03.557                             : :Chapter 20

Readme/Password

Password & My Message