Fast Download Mirrors

Dune (2021) • Movie | BluRay.1080p.TrueHD.Atmos.7.1.AVC.REMUX-FraMeSToR [29.10GB]

Dune (2021) • Movie
Dune 155min | Action, Adventure, Drama, Sci-Fi | October 22, 2021 (United States) Summary: Feature adaptation of Frank Herbert's science fiction novel, about the son of a noble family entrusted with the protection of the most valuable asset and most vital element in the galaxy.
Countries: United States, CanadaLanguages: English

Paul Atreides, a brilliant and gifted young man born into a great destiny beyond his understanding, must travel to the most dangerous planet in the universe to ensure the future of his family and his people. As malevolent forces explode into conflict over the planet’s exclusive supply of the most precious resource in existence-a commodity capable of unlocking humanity’s greatest potential-only those who can conquer their fear will survive.

Mirrors: 1fichier, MultiUp, Gdrive[GDTOT, Sharer, GAdrive], Gdrive Index
Format: MKV
Credits: FraMeSToR

Download

General
Unique ID                                : 189681605597158263055702370919461338744 (0x8EB3593185BB2CBFFD9B813795EABE78)
Format                                   : Matroska
Format version                           : Version 4
File size                                : 29.1 GiB
Duration                                 : 2 h 35 min
Overall bit rate mode                    : Variable
Overall bit rate                         : 26.8 Mb/s
Movie name                               : Dune (2021)
Encoded date                             : UTC 2021-12-03 15:30:47
Writing application                      : mkvmerge v63.0.0 ('Everything') 64-bit
Writing library                          : libebml v1.4.2 + libmatroska v1.6.4
IMDB                                     : tt1160419
TMDB                                     : movie/438631

Video
ID                                       : 1
Format                                   : AVC
Format/Info                              : Advanced Video Codec
Format profile                           : High@L4.1
Format settings                          : CABAC / 4 Ref Frames
Format settings, CABAC                   : Yes
Format settings, Reference frames        : 4 frames
Format settings, GOP                     : M=3, N=12
Codec ID                                 : V_MPEG4/ISO/AVC
Duration                                 : 2 h 35 min
Bit rate mode                            : Variable
Bit rate                                 : 22.8 Mb/s
Maximum bit rate                         : 31.0 Mb/s
Width                                    : 1 920 pixels
Height                                   : 1 080 pixels
Display aspect ratio                     : 16:9
Frame rate mode                          : Constant
Frame rate                               : 23.976 (24000/1001) FPS
Color space                              : YUV
Chroma subsampling                       : 4:2:0
Bit depth                                : 8 bits
Scan type                                : Progressive
Bits/(Pixel*Frame)                       : 0.459
Stream size                              : 24.8 GiB (85%)
Default                                  : Yes
Forced                                   : No

Audio #1
ID                                       : 2
Format                                   : MLP FBA 16-ch
Format/Info                              : Meridian Lossless Packing FBA with 16-channel presentation
Commercial name                          : Dolby TrueHD with Dolby Atmos
Codec ID                                 : A_TRUEHD
Duration                                 : 2 h 35 min
Bit rate mode                            : Variable
Bit rate                                 : 3 243 kb/s
Maximum bit rate                         : 5 472 kb/s
Channel(s)                               : 8 channels
Channel layout                           : L R C LFE Ls Rs Lb Rb
Sampling rate                            : 48.0 kHz
Frame rate                               : 1 200.000 FPS (40 SPF)
Compression mode                         : Lossless
Stream size                              : 3.52 GiB (12%)
Title                                    : TrueHD Atmos 7.1
Language                                 : English
Default                                  : Yes
Forced                                   : No
Number of dynamic objects                : 11
Bed channel count                        : 1 channel
Bed channel configuration                : LFE

Audio #2
ID                                       : 3
Format                                   : AC-3
Format/Info                              : Audio Coding 3
Commercial name                          : Dolby Digital
Codec ID                                 : A_AC3
Duration                                 : 2 h 35 min
Bit rate mode                            : Constant
Bit rate                                 : 448 kb/s
Channel(s)                               : 6 channels
Channel layout                           : L R C LFE Ls Rs
Sampling rate                            : 48.0 kHz
Frame rate                               : 31.250 FPS (1536 SPF)
Compression mode                         : Lossy
Stream size                              : 498 MiB (2%)
Title                                    : AC-3 5.1-EX
Language                                 : English
Service kind                             : Complete Main
Default                                  : No
Forced                                   : No

Text #1
ID                                       : 4
Format                                   : PGS
Codec ID                                 : S_HDMV/PGS
Codec ID/Info                            : Picture based subtitle format used on BDs/HD-DVDs
Duration                                 : 2 h 26 min
Bit rate                                 : 26.4 kb/s
Count of elements                        : 3406
Stream size                              : 27.7 MiB (0%)
Title                                    : English (SDH)
Language                                 : English
Default                                  : No
Forced                                   : No

Text #2
ID                                       : 5
Format                                   : PGS
Codec ID                                 : S_HDMV/PGS
Codec ID/Info                            : Picture based subtitle format used on BDs/HD-DVDs
Duration                                 : 2 h 35 min
Bit rate                                 : 18.4 kb/s
Count of elements                        : 2514
Stream size                              : 20.4 MiB (0%)
Title                                    : Chinese (Cantonese)
Language                                 : Chinese
Default                                  : No
Forced                                   : No

Text #3
ID                                       : 6
Format                                   : PGS
Codec ID                                 : S_HDMV/PGS
Codec ID/Info                            : Picture based subtitle format used on BDs/HD-DVDs
Duration                                 : 2 h 35 min
Bit rate                                 : 20.0 kb/s
Count of elements                        : 2360
Stream size                              : 22.2 MiB (0%)
Title                                    : Chinese (Traditional)
Language                                 : Chinese
Default                                  : No
Forced                                   : No

Text #4
ID                                       : 7
Format                                   : PGS
Codec ID                                 : S_HDMV/PGS
Codec ID/Info                            : Picture based subtitle format used on BDs/HD-DVDs
Duration                                 : 2 h 35 min
Bit rate                                 : 17.7 kb/s
Count of elements                        : 1780
Stream size                              : 19.7 MiB (0%)
Title                                    : Danish
Language                                 : Danish
Default                                  : No
Forced                                   : No

Text #5
ID                                       : 8
Format                                   : PGS
Codec ID                                 : S_HDMV/PGS
Codec ID/Info                            : Picture based subtitle format used on BDs/HD-DVDs
Duration                                 : 2 h 35 min
Bit rate                                 : 20.1 kb/s
Count of elements                        : 2528
Stream size                              : 22.4 MiB (0%)
Title                                    : Finnish
Language                                 : Finnish
Default                                  : No
Forced                                   : No

Text #6
ID                                       : 9
Format                                   : PGS
Codec ID                                 : S_HDMV/PGS
Codec ID/Info                            : Picture based subtitle format used on BDs/HD-DVDs
Duration                                 : 2 h 35 min
Bit rate                                 : 20.7 kb/s
Count of elements                        : 2492
Stream size                              : 23.0 MiB (0%)
Title                                    : Greek
Language                                 : Greek
Default                                  : No
Forced                                   : No

Text #7
ID                                       : 10
Format                                   : PGS
Codec ID                                 : S_HDMV/PGS
Codec ID/Info                            : Picture based subtitle format used on BDs/HD-DVDs
Duration                                 : 2 h 27 min
Bit rate                                 : 27.6 kb/s
Count of elements                        : 3510
Stream size                              : 29.2 MiB (0%)
Title                                    : Italian (SDH)
Language                                 : Italian
Default                                  : No
Forced                                   : No

Text #8
ID                                       : 11
Format                                   : PGS
Codec ID                                 : S_HDMV/PGS
Codec ID/Info                            : Picture based subtitle format used on BDs/HD-DVDs
Duration                                 : 2 h 35 min
Bit rate                                 : 12.7 kb/s
Count of elements                        : 2498
Stream size                              : 14.1 MiB (0%)
Title                                    : Korean
Language                                 : Korean
Default                                  : No
Forced                                   : No

Text #9
ID                                       : 12
Format                                   : PGS
Codec ID                                 : S_HDMV/PGS
Codec ID/Info                            : Picture based subtitle format used on BDs/HD-DVDs
Duration                                 : 2 h 35 min
Bit rate                                 : 18.3 kb/s
Count of elements                        : 1918
Stream size                              : 20.3 MiB (0%)
Title                                    : Norwegian
Language                                 : Norwegian
Default                                  : No
Forced                                   : No

Text #10
ID                                       : 13
Format                                   : PGS
Codec ID                                 : S_HDMV/PGS
Codec ID/Info                            : Picture based subtitle format used on BDs/HD-DVDs
Duration                                 : 2 h 35 min
Bit rate                                 : 20.3 kb/s
Count of elements                        : 2452
Stream size                              : 22.5 MiB (0%)
Title                                    : Spanish (Castilian)
Language                                 : Spanish
Default                                  : No
Forced                                   : No

Text #11
ID                                       : 14
Format                                   : PGS
Codec ID                                 : S_HDMV/PGS
Codec ID/Info                            : Picture based subtitle format used on BDs/HD-DVDs
Duration                                 : 2 h 35 min
Bit rate                                 : 18.1 kb/s
Count of elements                        : 1926
Stream size                              : 20.1 MiB (0%)
Title                                    : Swedish
Language                                 : Swedish
Default                                  : No
Forced                                   : No

Menu
00:00:00.000                             : en:Chapter 1
00:03:16.154                             : en:Chapter 2
00:12:54.816                             : en:Chapter 3
00:22:00.736                             : en:Chapter 4
00:29:16.922                             : en:Chapter 5
00:39:10.932                             : en:Chapter 6
00:47:19.795                             : en:Chapter 7
00:56:53.493                             : en:Chapter 8
01:06:50.381                             : en:Chapter 9
01:16:44.892                             : en:Chapter 10
01:26:00.655                             : en:Chapter 11
01:36:00.380                             : en:Chapter 12
01:45:09.470                             : en:Chapter 13
01:53:50.323                             : en:Chapter 14
02:03:38.536                             : en:Chapter 15
02:12:13.342                             : en:Chapter 16
02:20:45.771                             : en:Chapter 17
02:27:27.797                             : en:Chapter 18

Readme/Password

Password & My Message

Screenshots