Fast Download Mirrors

Earth’s Great Rivers (2019) • TV Mini Series | BluRay.REMUX-EPSiLON

Earth's Great Rivers (2019) • TV Mini Series | BluRay.REMUX-EPSiLON
Earth's Great Rivers (2019) 180min | Documentary | January 1, 2019 (United Kingdom) Summary: Earth's great rivers, from source to sea, make extraordinary journeys carving through continents, nurturing ancient civilizations, feeding and connecting life across our world from the mount... Read all
Countries: United Kingdom, United StatesLanguages: English

Earth’s great rivers, from source to sea, make extraordinary journeys carving through continents, nurturing ancient civilizations, feeding and connecting life across our world from the mountains and deserts of the Nile, from the cities and mysterious swamps of the Mississippi and the steaming waters and secret worlds of the tropical Amazon.

Mirrors: GDrive Index
Format: MKV
Series 1 Complete

Download

General
Unique ID : 303634280221285522319771899159815810871 (0xE46DD5D26C849D20C4702192441A6F37)
Complete name : Earths.Great.Rivers.S01E01.Amazon.1080i.BluRay.REMUX.AVC.DTS-HD.MA.2.0-EPSiLON.mkv
Format : Matroska
Format version : Version 4
File size : 11.5 GiB
Duration : 49 min 29 s
Overall bit rate mode : Variable
Overall bit rate : 33.4 Mb/s
Movie name : Earth's Great Rivers - S01E01 - Amazon
Track name/Position : 1
Track name/Total : 3
Encoded date : UTC 2019-06-08 23:30:37
Writing application : mkvmerge v34.0.0 ('Sight and Seen') 64-bit
Writing library : libebml v1.3.7 + libmatroska v1.5.0
IMDB : tt9543184
TMDB : tv/85428
TVDB : 357455

Video
ID : 1
Format : AVC
Format/Info : Advanced Video Codec
Format profile : High@L4.1
Format settings : CABAC / 3 Ref Frames
Format settings, CABAC : Yes
Format settings, Reference frames : 3 frames
Codec ID : V_MPEG4/ISO/AVC
Duration : 49 min 29 s
Bit rate mode : Variable
Bit rate : 31.8 Mb/s
Maximum bit rate : 35.0 Mb/s
Width : 1 920 pixels
Height : 1 080 pixels
Display aspect ratio : 16:9
Frame rate mode : Constant
Frame rate : 25.000 FPS
Color space : YUV
Chroma subsampling : 4:2:0
Bit depth : 8 bits
Scan type : Progressive
Bits/(Pixel*Frame) : 0.614
Stream size : 11.0 GiB (95%)
Title : MPEG-4 AVC Video / 31826 kbps / 1080i / 25 fps / 16:9 / High Profile 4.1
Language : English
Default : Yes
Forced : No

Audio
ID : 2
Format : DTS XLL
Format/Info : Digital Theater Systems
Commercial name : DTS-HD Master Audio
Codec ID : A_DTS
Duration : 49 min 29 s
Bit rate mode : Variable
Bit rate : 1 566 kb/s
Channel(s) : 2 channels
Channel layout : L R
Sampling rate : 48.0 kHz
Frame rate : 93.750 FPS (512 SPF)
Bit depth : 16 bits
Compression mode : Lossless
Stream size : 554 MiB (5%)
Title : DTS-HD Master Audio / 2.0 / 48 kHz / 1566 kbps / 16-bit
Language : English
Default : Yes
Forced : No

Text
ID : 3
Format : PGS
Codec ID : S_HDMV/PGS
Codec ID/Info : Picture based subtitle format used on BDs/HD-DVDs
Duration : 24 min 53 s
Bit rate : 4 352 b/s
Count of elements : 58
Stream size : 794 KiB (0%)
Title : Forced
Language : English
Default : Yes
Forced : Yes

Menu
00:00:00.000 : en:Chapter 1
00:01:11.760 : en:Chapter 2
00:08:42.400 : en:Chapter 3
00:19:53.320 : en:Chapter 4
00:29:57.560 : en:Chapter 5
00:39:18.920 : en:Chapter 6

Password

Password & My Message

Info

Earths Great Rivers: Series 1
Revealing the extraordinary animals, astonishing landscapes and remarkable people who live alongside the Amazon, Mississippi and Nile.

1)  Amazon
This episode is a pioneering exploration of the latest discoveries concerning the Amazon – by far the greatest river on Earth. It is the river of superlatives, flowing more than 4,000 miles from the Andes to the Atlantic. Its 1,100 tributaries drain the greatest river basin on the planet and along its incredible journey it collects and transports one-fifth of the world’s fresh water. Due to its enormous size, it still hides secrets.

2)  Nile
For a river that conjures up images of pyramids and pharaohs, the Nile turns out to be a truly surprising river that changes at every twist and turn of its journey. As its flows into increasingly arid latitudes on its journey north it becomes an evermore vital lifeline for animals and people, but only if they can conquer the challenges that this ever-changing river throws at them.

3)  Mississippi
It is an unexpected and contrasting journey through America’s iconic and varied landscapes as the Mississippi flows from source to mouth. The Mississippi’s greatest surprise is its incredible reach. Its fingers stretch into nearly half of the USA, collecting water from 31 states. More than any other, this one river has helped unite the many and varied parts of America.