Fast Download Mirrors

Ed, Edd n Eddy (1999–2008 ) • TVSeries | 1080p-HMax-Web-DL-x264 + Specials + Extras

Ed, Edd n Eddy (1999–2008 ) • TVSeries | 1080p-HMax-Web-DL-x264 + Specials + Extras
Ed, Edd n Eddy 1800min | Animation, Comedy, Family | January 4, 1999 (United States) Summary: The off-the-wall, day-to-day life of three friends who have exactly the same name.
Countries: Canada, United StatesLanguages: English

The off-the-wall, day-to-day life of three friends who have exactly the same name.

Mirrors: GDrive Index
Format: MP4
Credits: -  

Download

Name (Title): ED, EDD n EDDY (1999-2009) - Complete ANIMATED TV Series, Season 1,2,3,4,5,6 S01-S06, Specials, and Extras - 1080p HMax Web-DL x264.

Category Type: TV Series.

Length (Duration): 22+ Minutes per Episode.

Year(s): 1999-2009.

Genre(s): Children, Comedy, Fantasy.

Resolution: 1080p.

Rip Type (Source): HMax Web-DL -> Ed.Edd.N.Eddy.S01-S05.1080p.HMAX.WEBRip.DD2.0.x264-ViSiON .

Codec Type: x264.

Format of File(s): MP4(s) for Everything.

Audio Format & Language(s): ENGLISH Audio in AC3 2.0 2-Channel (384 KBPs).

Subtitles: YES -> External ENGLISH "SRT" Subs.

Chapters: No.

IMDB Link(s): https://www.imdb.com/title/tt0184111/
General
Complete name                            : Ed, Edd n Eddy - S01 E01-E02 - The Ed-Touchables and Nagged to Ed (1080p - HMax Web-DL).mp4
Format                                   : MPEG-4
Format profile                           : Base Media / Version 2
Codec ID                                 : mp42 (isom/iso2/avc1/mp41)
File size                                : 562 MiB
Duration                                 : 22 min 36 s
Overall bit rate                         : 3 475 kb/s
Description                              : The Ed-Touchables: Edd is mad because someone has been in his room touching his stuff. When Eddy hears everybody's stuff is being touched, he devises a plan to catch the mysterious toucher and make them all rich./Nagged to Ed: The Eds are discovered by the Kanker sisters, who take them back to their mobile home, make them dinner and iron their undershirts. At first the Eds like it, but soon their patience wears thin.
Encoded date                             : UTC 2021-05-17 07:01:33
Tagged date                              : UTC 2021-05-17 07:01:33
Writing application                      : HandBrake 1.1.2 2018090500

Video
ID                                       : 1
Format                                   : AVC
Format/Info                              : Advanced Video Codec
Format profile                           : High@L4.1
Format settings                          : CABAC / 5 Ref Frames
Format settings, CABAC                   : Yes
Format settings, Reference frames        : 5 frames
Codec ID                                 : avc1
Codec ID/Info                            : Advanced Video Coding
Duration                                 : 22 min 36 s
Bit rate                                 : 3 086 kb/s
Width                                    : 1 440 pixels
Height                                   : 1 080 pixels
Display aspect ratio                     : 4:3
Frame rate mode                          : Constant
Frame rate                               : 29.970 (30000/1001) FPS
Color space                              : YUV
Chroma subsampling                       : 4:2:0
Bit depth                                : 8 bits
Scan type                                : Progressive
Bits/(Pixel*Frame)                       : 0.066
Stream size                              : 499 MiB (89%)
Writing library                          : x264 core 155 r2901 7d0ff22
Encoding settings                        : cabac=1 / ref=5 / deblock=1:1:1 / analyse=0x3:0x133 / me=umh / subme=10 / psy=1 / psy_rd=1.00:0.00 / mixed_ref=1 / me_range=32 / chroma_me=1 / trellis=2 / 8x8dct=1 / cqm=0 / deadzone=21,11 / fast_pskip=1 / chroma_qp_offset=-2 / threads=12 / lookahead_threads=1 / sliced_threads=0 / nr=0 / decimate=1 / interlaced=0 / bluray_compat=0 / constrained_intra=0 / bframes=5 / b_pyramid=2 / b_adapt=2 / b_bias=0 / direct=3 / weightb=1 / open_gop=0 / weightp=2 / keyint=300 / keyint_min=30 / scenecut=40 / intra_refresh=0 / rc_lookahead=50 / rc=crf / mbtree=1 / crf=23.0 / qcomp=0.60 / qpmin=0 / qpmax=69 / qpstep=4 / vbv_maxrate=62500 / vbv_bufsize=78125 / crf_max=0.0 / nal_hrd=none / filler=0 / ip_ratio=1.40 / aq=3:0.80
Encoded date                             : UTC 2021-05-17 07:01:33
Tagged date                              : UTC 2021-05-17 07:01:33
Color range                              : Limited
Color primaries                          : BT.709
Transfer characteristics                 : BT.709
Matrix coefficients                      : BT.709
Codec configuration box                  : avcC

Audio
ID                                       : 2
Format                                   : AC-3
Format/Info                              : Audio Coding 3
Commercial name                          : Dolby Digital
Codec ID                                 : ac-3
Duration                                 : 22 min 36 s
Bit rate mode                            : Constant
Bit rate                                 : 384 kb/s
Channel(s)                               : 2 channels
Channel layout                           : L R
Sampling rate                            : 48.0 kHz
Frame rate                               : 31.250 FPS (1536 SPF)
Compression mode                         : Lossy
Stream size                              : 62.1 MiB (11%)
Title                                    : Stereo / Stereo
Language                                 : English
Service kind                             : Complete Main
Default                                  : Yes
Alternate group                          : 1
Encoded date                             : UTC 2021-05-17 07:01:33
Tagged date                              : UTC 2021-05-17 07:01:33


Readme/Password

Password & My Message