Fast Download Mirrors

Envoy: Shark Cull (2021) • Movie | 2160p.STAN.WEB-DL.x265.8bit.SDR.AAC2.0-TEPES [9.7GB]

Envoy: Shark Cull (2021) • Movie
Envoy: Shark Cull 90min | Documentary | July 1, 2021 (United States) Summary: Off the beautiful beaches, among breathtaking coral reefs of Australia lurks a deadly and indiscriminate killer. It's thirst for blood kills 1000s each and every year. It's not sharks. It's ... Read all
Countries: AustraliaLanguages: English

Envoy: Shark Cull is a fascinating, deeply moving documentary narrated by Eric Bana, which sheds light on the real story behind the coastal ‘shark safety’ programs in Queensland and New South Wales. The current methods of baited drum-lines and nets have not only been scientifically proven to be ineffective in protecting swimmers and surfers, leaving them at risk in the sea, but these outdated solutions continue to be allowed to negatively impact entire marine ecosystems—including the Great Barrier Reef. Follows some of the biggest names in ocean conservation, such as Sea Shepherd, Ocean Ramsey and Madison Stewart. We will join these experts as they explore and expose this scarcely understood topic. We will also learn the importance of sharks in our oceans while uncovering the longest marine cull in history.

Mirrors: 1fichier, MultiUp, Gdrive[GDTOT, Sharer]
Format: MKV
Credits: TEPES

Download

Video
ID : 1
Format : HEVC
Format/Info : High Efficiency Video Coding
Format profile : Main@L5@High
Codec ID : V_MPEGH/ISO/HEVC
Duration : 1 h 42 min
Bit rate : 13.4 Mb/s
Width : 3 840 pixels
Height : 1 608 pixels
Display aspect ratio : 2.40:1
Frame rate mode : Constant
Frame rate : 25.000 FPS
Color space : YUV
Chroma subsampling : 4:2:0
Bit depth : 8 bits
Bits/(Pixel*Frame) : 0.087
Stream size : 9.62 GiB (99%)
Language : English
Default : Yes
Forced : No
Color range : Limited
Color primaries : BT.709
Transfer characteristics : BT.709
Matrix coefficients : BT.709

Audio
ID : 2
Format : AAC LC
Format/Info : Advanced Audio Codec Low Complexity
Codec ID : A_AAC-2
Duration : 1 h 42 min
Bit rate : 126 kb/s
Channel(s) : 2 channels
Channel layout : L R
Sampling rate : 44.1 kHz
Frame rate : 43.066 FPS (1024 SPF)
Compression mode : Lossy
Stream size : 92.1 MiB (1%)
Language : English
Default : Yes
Forced : No

Text
ID : 3
Format : UTF-8
Codec ID : S_TEXT/UTF8
Codec ID/Info : UTF-8 Plain Text
Duration : 1 h 40 min
Bit rate : 105 b/s
Count of elements : 1802
Stream size : 77.2 KiB (0%)
Title : CC
Language : English
Default : No
Forced : No

Readme/Password

Password & My Message

Screenshots