Fast Download Mirrors

[Exclusive] Escape from Mogadishu (2021) • Movie | KOREAN.BluRay.1080p.REMUX.AVC.DTS-HD.MA.5.1-AMBASSADOR [21.5GB]

Escape from Mogadishu Action, Drama, Thriller | August 6, 2021 (United States) Summary: In 1991 war-torn Somalia the personnel and the families of both the South Korean and the North Korean embassies have the same goal: to escape from Mogadishu.
Countries: South KoreaLanguages: Korean

Diplomats from the North and South Korean embassies in Somalia attempt a daring joint escape from Mogadishu when the outbreak of civil war leaves them stranded.

Mirrors: Zippyshare, MultiUp, Gdrive[GDTOT, Index]
Format: MKV
Credits: Ambassadorddl.site (remux done by crackhub213)
Note: This is an exclusive remux release that can only be found here! 
BluRay Credits: Escape.from.Mogadishu.2021.COMPLETE.BLURAY-NOELLE

Download

General
Unique ID                                : 85293708330484470465897237527632873422 (0x402AF87F69716C79F07044C34C1907CE)
Complete name                            : Escape.from.Mogadishu.2021.KOREAN.BluRay.1080p.REMUX.AVC.DTS-HD.MA.5.1-AMBASSADOR.mkv
Format                                   : Matroska
Format version                           : Version 2
File size                                : 21.5 GiB
Duration                                 : 2 h 1 min
Overall bit rate mode                    : Variable
Overall bit rate                         : 25.5 Mb/s
Movie name                               : Escape From Mogadishu
Encoded date                             : UTC 2021-11-11 19:44:35
Writing application                      : MakeMKV v1.16.5 win(x64-release)
Writing library                          : libmakemkv v1.16.5 (1.3.10/1.5.2) win(x64-release)

Video
ID                                       : 1
ID in the original source medium         : 4113 (0x1011)
Format                                   : AVC
Format/Info                              : Advanced Video Codec
Format profile                           : High@L4.1
Format settings                          : CABAC / 4 Ref Frames
Format settings, CABAC                   : Yes
Format settings, Reference frames        : 4 frames
Codec ID                                 : V_MPEG4/ISO/AVC
Duration                                 : 2 h 1 min
Bit rate mode                            : Variable
Bit rate                                 : 19.5 Mb/s
Maximum bit rate                         : 28.0 Mb/s
Width                                    : 1 920 pixels
Height                                   : 1 080 pixels
Display aspect ratio                     : 16:9
Frame rate mode                          : Constant
Frame rate                               : 24.000 FPS
Standard                                 : NTSC
Color space                              : YUV
Chroma subsampling                       : 4:2:0
Bit depth                                : 8 bits
Scan type                                : Progressive
Bits/(Pixel*Frame)                       : 0.392
Stream size                              : 16.5 GiB (77%)
Language                                 : English
Default                                  : No
Forced                                   : No
Color range                              : Limited
Color primaries                          : BT.709
Transfer characteristics                 : BT.709
Matrix coefficients                      : BT.709
Original source medium                   : Blu-ray

Audio #1
ID                                       : 2
ID in the original source medium         : 4352 (0x1100)
Format                                   : DTS ES XLL
Format/Info                              : Digital Theater Systems
Commercial name                          : DTS-HD Master Audio
Codec ID                                 : A_DTS
Duration                                 : 2 h 1 min
Bit rate mode                            : Variable
Bit rate                                 : 3 764 kb/s
Channel(s)                               : 6 channels
Channel(s)_Original                      : 7 channels
ChannelLayout_Original                   : C L R Ls Rs LFE Cs
Sampling rate                            : 48.0 kHz
Frame rate                               : 93.750 FPS (512 SPF)
Bit depth                                : 24 bits
Compression mode                         : Lossless
Stream size                              : 3.18 GiB (15%)
Title                                    : Surround 5.1
Language                                 : Korean
Default                                  : Yes
Forced                                   : No
Original source medium                   : Blu-ray

Audio #2
ID                                       : 3
ID in the original source medium         : 4352 (0x1100)
Format                                   : DTS ES
Format/Info                              : Digital Theater Systems
Commercial name                          : DTS-ES Matrix
Codec ID                                 : A_DTS
Duration                                 : 2 h 1 min
Bit rate mode                            : Constant
Bit rate                                 : 1 509 kb/s
Channel(s)                               : 6 channels
Channel(s)_Original                      : 7 channels
ChannelLayout_Original                   : C L R Ls Rs Cs LFE
Sampling rate                            : 48.0 kHz
Frame rate                               : 93.750 FPS (512 SPF)
Bit depth                                : 24 bits
Compression mode                         : Lossy
Stream size                              : 1.28 GiB (6%)
Title                                    : Surround 5.1
Language                                 : Korean
Default                                  : No
Forced                                   : No
Original source medium                   : Blu-ray

Audio #3
ID                                       : 4
ID in the original source medium         : 4353 (0x1101)
Format                                   : AC-3
Format/Info                              : Audio Coding 3
Commercial name                          : Dolby Digital
Format settings                          : Dolby Surround EX
Codec ID                                 : A_AC3
Duration                                 : 2 h 1 min
Bit rate mode                            : Constant
Bit rate                                 : 640 kb/s
Channel(s)                               : 6 channels
Channel layout                           : L R C LFE Ls Rs
Sampling rate                            : 48.0 kHz
Frame rate                               : 31.250 FPS (1536 SPF)
Compression mode                         : Lossy
Stream size                              : 554 MiB (3%)
Title                                    : Surround 5.1
Language                                 : Korean
Service kind                             : Complete Main
Default                                  : No
Forced                                   : No
Original source medium                   : Blu-ray

Text #1
ID                                       : 5
ID in the original source medium         : 4608 (0x1200)
Format                                   : PGS
Codec ID                                 : S_HDMV/PGS
Codec ID/Info                            : Picture based subtitle format used on BDs/HD-DVDs
Duration                                 : 1 h 55 min
Bit rate                                 : 28.9 kb/s
Count of elements                        : 1986
Stream size                              : 23.8 MiB (0%)
Language                                 : Chinese
Default                                  : No
Forced                                   : No
Original source medium                   : Blu-ray

Text #2
ID                                       : 7
ID in the original source medium         : 4609 (0x1201)
Format                                   : PGS
Codec ID                                 : S_HDMV/PGS
Codec ID/Info                            : Picture based subtitle format used on BDs/HD-DVDs
Duration                                 : 1 h 55 min
Bit rate                                 : 33.2 kb/s
Count of elements                        : 1981
Stream size                              : 27.5 MiB (0%)
Language                                 : English
Default                                  : No
Forced                                   : No
Original source medium                   : Blu-ray

Menu
00:00:00.000                             : en:Chapter 01
00:10:03.833                             : en:Chapter 02
00:20:20.541                             : en:Chapter 03
00:30:50.750                             : en:Chapter 04
00:37:58.375                             : en:Chapter 05
00:49:29.208                             : en:Chapter 06
01:00:11.833                             : en:Chapter 07
01:11:29.041                             : en:Chapter 08
01:20:40.750                             : en:Chapter 09
01:31:29.333                             : en:Chapter 10
01:40:21.041                             : en:Chapter 11
01:50:03.041                             : en:Chapter 12

Readme/Password

Password & My Message

Screenshots