Fast Download Mirrors

[Exclusive] Escape the Undertaker (2021) • Movie | 1080p.NF.WEB-DL.DDP5.1.x264-WELP

Escape the Undertaker (2021) • Movie
Escape the Undertaker 1860min | Mystery | October 5, 2021 (United States) Summary: Can The New Day survive the surprises at The Undertaker's spooky mansion? You can decide their fate!
Countries: United StatesLanguages: English

Can The New Day survive the surprises at The Undertaker’s spooky mansion? You can decide their fate!

Mirrors: MirrorAce, MultiUp, Gdrive[GDTOT, Sharer], 1fichier
Format: MKV
Credits: WELP

Download

General
Unique ID                                : 154203600281354046164247479933989820601 (0x7402887B4CF4ABAD70541F5CD95018B9)
Complete name                            : Escape.the.Undertaker.2021.1080p.NF.WEB-DL.DDP5.1.x264-WELP.mkv
Format                                   : Matroska
Format version                           : Version 4
File size                                : 862 MiB
Duration                                 : 33 min 15 s
Overall bit rate mode                    : Variable
Overall bit rate                         : 3 623 kb/s
Writing application                      : mkvmerge v61.0.0 ('So') 64-bit
Writing library                          : libebml v1.4.2 + libmatroska v1.6.4

Video
ID                                       : 1
Format                                   : AVC
Format/Info                              : Advanced Video Codec
Format profile                           : Main@L4
Format settings                          : CABAC / 3 Ref Frames
Format settings, CABAC                   : Yes
Format settings, Reference frames        : 3 frames
Codec ID                                 : V_MPEG4/ISO/AVC
Duration                                 : 33 min 15 s
Bit rate mode                            : Variable
Bit rate                                 : 2 977 kb/s
Nominal bit rate                         : 3 160 kb/s
Maximum bit rate                         : 4 740 kb/s
Width                                    : 1 920 pixels
Height                                   : 1 080 pixels
Display aspect ratio                     : 16:9
Frame rate mode                          : Constant
Frame rate                               : 24.000 FPS
Original frame rate                      : 23.976 (24000/1001) FPS
Color space                              : YUV
Chroma subsampling                       : 4:2:0
Bit depth                                : 8 bits
Scan type                                : Progressive
Bits/(Pixel*Frame)                       : 0.060
Stream size                              : 708 MiB (82%)
Writing library                          : x264 core 148 r2724 dbe0335
Encoding settings                        : cabac=1 / ref=3 / deblock=1:0:0 / analyse=0x1:0x111 / me=umh / subme=10 / psy=1 / psy_rd=1.00:0.00 / mixed_ref=1 / me_range=24 / chroma_me=1 / trellis=2 / 8x8dct=0 / cqm=0 / deadzone=21,11 / fast_pskip=1 / chroma_qp_offset=-2 / threads=8 / lookahead_threads=1 / sliced_threads=0 / nr=0 / decimate=1 / interlaced=0 / bluray_compat=0 / stitchable=1 / constrained_intra=0 / bframes=2 / b_pyramid=0 / b_adapt=2 / b_bias=0 / direct=3 / weightb=1 / open_gop=0 / weightp=2 / keyint=250 / keyint_min=23 / scenecut=0 / intra_refresh=0 / rc_lookahead=48 / rc=2pass / mbtree=1 / bitrate=3160 / ratetol=1.0 / qcomp=0.50 / qpmin=6 / qpmax=51 / qpstep=4 / cplxblur=20.0 / qblur=0.5 / vbv_maxrate=4740 / vbv_bufsize=6320 / nal_hrd=vbr / filler=0 / ip_ratio=1.40 / aq=1:1.00
Default                                  : Yes
Forced                                   : No

Audio
ID                                       : 2
Format                                   : E-AC-3
Format/Info                              : Enhanced AC-3
Commercial name                          : Dolby Digital Plus
Codec ID                                 : A_EAC3
Duration                                 : 33 min 15 s
Bit rate mode                            : Constant
Bit rate                                 : 640 kb/s
Channel(s)                               : 6 channels
Channel layout                           : L R C LFE Ls Rs
Sampling rate                            : 48.0 kHz
Frame rate                               : 31.250 FPS (1536 SPF)
Compression mode                         : Lossy
Stream size                              : 152 MiB (18%)
Language                                 : English
Service kind                             : Complete Main
Default                                  : Yes
Forced                                   : No

Text #1
ID                                       : 3
Format                                   : UTF-8
Codec ID                                 : S_TEXT/UTF8
Codec ID/Info                            : UTF-8 Plain Text
Duration                                 : 31 min 1 s
Bit rate                                 : 57 b/s
Count of elements                        : 435
Stream size                              : 13.0 KiB (0%)
Language                                 : English
Default                                  : No
Forced                                   : No

Text #2
ID                                       : 4
Format                                   : UTF-8
Codec ID                                 : S_TEXT/UTF8
Codec ID/Info                            : UTF-8 Plain Text
Duration                                 : 31 min 13 s
Bit rate                                 : 70 b/s
Count of elements                        : 545
Stream size                              : 16.2 KiB (0%)
Title                                    : SDH
Language                                 : English
Default                                  : No
Forced                                   : No

Text #3
ID                                       : 5
Format                                   : UTF-8
Codec ID                                 : S_TEXT/UTF8
Codec ID/Info                            : UTF-8 Plain Text
Duration                                 : 31 min 18 s
Bit rate                                 : 91 b/s
Count of elements                        : 433
Stream size                              : 21.1 KiB (0%)
Language                                 : Arabic
Default                                  : No
Forced                                   : No

Text #4
ID                                       : 6
Format                                   : UTF-8
Codec ID                                 : S_TEXT/UTF8
Codec ID/Info                            : UTF-8 Plain Text
Duration                                 : 31 min 18 s
Bit rate                                 : 47 b/s
Count of elements                        : 431
Stream size                              : 11.0 KiB (0%)
Language                                 : Czech
Default                                  : No
Forced                                   : No

Text #5
ID                                       : 7
Format                                   : UTF-8
Codec ID                                 : S_TEXT/UTF8
Codec ID/Info                            : UTF-8 Plain Text
Duration                                 : 31 min 18 s
Bit rate                                 : 47 b/s
Count of elements                        : 427
Stream size                              : 10.8 KiB (0%)
Language                                 : Danish
Default                                  : No
Forced                                   : No

Text #6
ID                                       : 8
Format                                   : UTF-8
Codec ID                                 : S_TEXT/UTF8
Codec ID/Info                            : UTF-8 Plain Text
Duration                                 : 31 min 18 s
Bit rate                                 : 50 b/s
Count of elements                        : 417
Stream size                              : 11.5 KiB (0%)
Language                                 : German
Default                                  : No
Forced                                   : No

Text #7
ID                                       : 9
Format                                   : UTF-8
Codec ID                                 : S_TEXT/UTF8
Codec ID/Info                            : UTF-8 Plain Text
Duration                                 : 31 min 18 s
Bit rate                                 : 75 b/s
Count of elements                        : 424
Stream size                              : 17.3 KiB (0%)
Language                                 : Greek
Default                                  : No
Forced                                   : No

Text #8
ID                                       : 10
Format                                   : UTF-8
Codec ID                                 : S_TEXT/UTF8
Codec ID/Info                            : UTF-8 Plain Text
Duration                                 : 31 min 18 s
Bit rate                                 : 48 b/s
Count of elements                        : 433
Stream size                              : 11.2 KiB (0%)
Title                                    : Spanish
Language                                 : Spanish
Default                                  : No
Forced                                   : No

Text #9
ID                                       : 11
Format                                   : UTF-8
Codec ID                                 : S_TEXT/UTF8
Codec ID/Info                            : UTF-8 Plain Text
Duration                                 : 31 min 18 s
Bit rate                                 : 49 b/s
Count of elements                        : 431
Stream size                              : 11.4 KiB (0%)
Title                                    : European
Language                                 : Spanish
Default                                  : No
Forced                                   : No

Text #10
ID                                       : 12
Format                                   : UTF-8
Codec ID                                 : S_TEXT/UTF8
Codec ID/Info                            : UTF-8 Plain Text
Duration                                 : 31 min 18 s
Bit rate                                 : 47 b/s
Count of elements                        : 361
Stream size                              : 10.8 KiB (0%)
Language                                 : Finnish
Default                                  : No
Forced                                   : No

Text #11
ID                                       : 13
Format                                   : UTF-8
Codec ID                                 : S_TEXT/UTF8
Codec ID/Info                            : UTF-8 Plain Text
Duration                                 : 31 min 18 s
Bit rate                                 : 54 b/s
Count of elements                        : 430
Stream size                              : 12.5 KiB (0%)
Language                                 : French
Default                                  : No
Forced                                   : No

Text #12
ID                                       : 14
Format                                   : UTF-8
Codec ID                                 : S_TEXT/UTF8
Codec ID/Info                            : UTF-8 Plain Text
Duration                                 : 31 min 18 s
Bit rate                                 : 85 b/s
Count of elements                        : 433
Stream size                              : 19.7 KiB (0%)
Language                                 : Hebrew
Default                                  : No
Forced                                   : No

Text #13
ID                                       : 15
Format                                   : UTF-8
Codec ID                                 : S_TEXT/UTF8
Codec ID/Info                            : UTF-8 Plain Text
Duration                                 : 31 min 18 s
Bit rate                                 : 45 b/s
Count of elements                        : 430
Stream size                              : 10.5 KiB (0%)
Language                                 : Croatian
Default                                  : No
Forced                                   : No

Text #14
ID                                       : 16
Format                                   : UTF-8
Codec ID                                 : S_TEXT/UTF8
Codec ID/Info                            : UTF-8 Plain Text
Duration                                 : 31 min 18 s
Bit rate                                 : 51 b/s
Count of elements                        : 431
Stream size                              : 11.7 KiB (0%)
Language                                 : Hungarian
Default                                  : No
Forced                                   : No

Text #15
ID                                       : 17
Format                                   : UTF-8
Codec ID                                 : S_TEXT/UTF8
Codec ID/Info                            : UTF-8 Plain Text
Duration                                 : 31 min 18 s
Bit rate                                 : 51 b/s
Count of elements                        : 432
Stream size                              : 11.8 KiB (0%)
Language                                 : Indonesian
Default                                  : No
Forced                                   : No

Text #16
ID                                       : 18
Format                                   : UTF-8
Codec ID                                 : S_TEXT/UTF8
Codec ID/Info                            : UTF-8 Plain Text
Duration                                 : 31 min 18 s
Bit rate                                 : 50 b/s
Count of elements                        : 414
Stream size                              : 11.6 KiB (0%)
Language                                 : Italian
Default                                  : No
Forced                                   : No

Text #17
ID                                       : 19
Format                                   : UTF-8
Codec ID                                 : S_TEXT/UTF8
Codec ID/Info                            : UTF-8 Plain Text
Duration                                 : 31 min 19 s
Bit rate                                 : 50 b/s
Count of elements                        : 465
Stream size                              : 11.6 KiB (0%)
Language                                 : Japanese
Default                                  : No
Forced                                   : No

Text #18
ID                                       : 20
Format                                   : UTF-8
Codec ID                                 : S_TEXT/UTF8
Codec ID/Info                            : UTF-8 Plain Text
Duration                                 : 31 min 18 s
Bit rate                                 : 63 b/s
Count of elements                        : 435
Stream size                              : 14.5 KiB (0%)
Language                                 : Korean
Default                                  : No
Forced                                   : No

Text #19
ID                                       : 21
Format                                   : UTF-8
Codec ID                                 : S_TEXT/UTF8
Codec ID/Info                            : UTF-8 Plain Text
Duration                                 : 31 min 18 s
Bit rate                                 : 50 b/s
Count of elements                        : 417
Stream size                              : 11.6 KiB (0%)
Language                                 : Malay
Default                                  : No
Forced                                   : No

Text #20
ID                                       : 22
Format                                   : UTF-8
Codec ID                                 : S_TEXT/UTF8
Codec ID/Info                            : UTF-8 Plain Text
Duration                                 : 31 min 18 s
Bit rate                                 : 39 b/s
Count of elements                        : 277
Stream size                              : 8.97 KiB (0%)
Language                                 : Norwegian Bokmal
Default                                  : No
Forced                                   : No

Text #21
ID                                       : 23
Format                                   : UTF-8
Codec ID                                 : S_TEXT/UTF8
Codec ID/Info                            : UTF-8 Plain Text
Duration                                 : 31 min 18 s
Bit rate                                 : 44 b/s
Count of elements                        : 354
Stream size                              : 10.3 KiB (0%)
Language                                 : Dutch
Default                                  : No
Forced                                   : No

Text #22
ID                                       : 24
Format                                   : UTF-8
Codec ID                                 : S_TEXT/UTF8
Codec ID/Info                            : UTF-8 Plain Text
Duration                                 : 31 min 18 s
Bit rate                                 : 42 b/s
Count of elements                        : 420
Stream size                              : 9.74 KiB (0%)
Language                                 : Polish
Default                                  : No
Forced                                   : No

Text #23
ID                                       : 25
Format                                   : UTF-8
Codec ID                                 : S_TEXT/UTF8
Codec ID/Info                            : UTF-8 Plain Text
Duration                                 : 31 min 18 s
Bit rate                                 : 50 b/s
Count of elements                        : 430
Stream size                              : 11.5 KiB (0%)
Title                                    : Portuguese
Language                                 : Portuguese
Default                                  : No
Forced                                   : No

Text #24
ID                                       : 26
Format                                   : UTF-8
Codec ID                                 : S_TEXT/UTF8
Codec ID/Info                            : UTF-8 Plain Text
Duration                                 : 31 min 18 s
Bit rate                                 : 53 b/s
Count of elements                        : 435
Stream size                              : 12.2 KiB (0%)
Title                                    : Brazilian
Language                                 : Portuguese
Default                                  : No
Forced                                   : No

Text #25
ID                                       : 27
Format                                   : UTF-8
Codec ID                                 : S_TEXT/UTF8
Codec ID/Info                            : UTF-8 Plain Text
Duration                                 : 31 min 18 s
Bit rate                                 : 57 b/s
Count of elements                        : 430
Stream size                              : 13.3 KiB (0%)
Language                                 : Romanian
Default                                  : No
Forced                                   : No

Text #26
ID                                       : 28
Format                                   : UTF-8
Codec ID                                 : S_TEXT/UTF8
Codec ID/Info                            : UTF-8 Plain Text
Duration                                 : 31 min 18 s
Bit rate                                 : 79 b/s
Count of elements                        : 433
Stream size                              : 18.2 KiB (0%)
Language                                 : Russian
Default                                  : No
Forced                                   : No

Text #27
ID                                       : 29
Format                                   : UTF-8
Codec ID                                 : S_TEXT/UTF8
Codec ID/Info                            : UTF-8 Plain Text
Duration                                 : 31 min 18 s
Bit rate                                 : 47 b/s
Count of elements                        : 428
Stream size                              : 11.0 KiB (0%)
Language                                 : Swedish
Default                                  : No
Forced                                   : No

Text #28
ID                                       : 30
Format                                   : UTF-8
Codec ID                                 : S_TEXT/UTF8
Codec ID/Info                            : UTF-8 Plain Text
Duration                                 : 31 min 19 s
Bit rate                                 : 136 b/s
Count of elements                        : 448
Stream size                              : 31.3 KiB (0%)
Language                                 : Thai
Default                                  : No
Forced                                   : No

Text #29
ID                                       : 31
Format                                   : UTF-8
Codec ID                                 : S_TEXT/UTF8
Codec ID/Info                            : UTF-8 Plain Text
Duration                                 : 31 min 18 s
Bit rate                                 : 51 b/s
Count of elements                        : 432
Stream size                              : 11.7 KiB (0%)
Language                                 : Turkish
Default                                  : No
Forced                                   : No

Text #30
ID                                       : 32
Format                                   : UTF-8
Codec ID                                 : S_TEXT/UTF8
Codec ID/Info                            : UTF-8 Plain Text
Duration                                 : 31 min 18 s
Bit rate                                 : 70 b/s
Count of elements                        : 433
Stream size                              : 16.2 KiB (0%)
Language                                 : Ukrainian
Default                                  : No
Forced                                   : No

Text #31
ID                                       : 33
Format                                   : UTF-8
Codec ID                                 : S_TEXT/UTF8
Codec ID/Info                            : UTF-8 Plain Text
Duration                                 : 31 min 18 s
Bit rate                                 : 79 b/s
Count of elements                        : 434
Stream size                              : 18.1 KiB (0%)
Language                                 : Vietnamese
Default                                  : No
Forced                                   : No

Text #32
ID                                       : 34
Format                                   : UTF-8
Codec ID                                 : S_TEXT/UTF8
Codec ID/Info                            : UTF-8 Plain Text
Duration                                 : 31 min 18 s
Bit rate                                 : 52 b/s
Count of elements                        : 433
Stream size                              : 12.0 KiB (0%)
Title                                    : Simplified
Language                                 : Chinese
Default                                  : No
Forced                                   : No

Text #33
ID                                       : 35
Format                                   : UTF-8
Codec ID                                 : S_TEXT/UTF8
Codec ID/Info                            : UTF-8 Plain Text
Duration                                 : 31 min 18 s
Bit rate                                 : 53 b/s
Count of elements                        : 437
Stream size                              : 12.2 KiB (0%)
Title                                    : Traditional
Language                                 : Chinese
Default                                  : No
Forced                                   : No


Readme

Password & My Message

Screenshots