Fast Download Mirrors

[Exclusive] Strike Up the Band (1940) • Movie | 1080p.BluRay.REMUX.AVC.DTS-HD.MA-THEAMBASSADOR [32.06GB]

Strike Up the Band Comedy, Musical, Romance | September 27, 1940 (United States) Summary: A high school boy wants to become a professional musician, and his gal pal wants to become his best girl. They work together staging big band shows with fellow classmates in the hopes of hit... Read all
Countries: United StatesLanguages: English

Jimmy and Mary get a group of kids together to play in a school orchestra. A huge contest between schools is coming up and they have a hard time raising money to go to Chicago for the contest.

Mirrors: MultiUp, GDrive Index, GDTOT
Format: MKV
Credits: Ambassadorddl.site (remux done by crackhub213)
Note: This is an exclusive remux release that can only be found here! 
BluRay Credits: Strike.up.the.Band.1940.COMPLETE.BLURAY-INCUBO

Download

General
Unique ID                                : 200712758537927021015573595050308491284 (0x96FFDF063BF2689BBAF2C390FB8B5814)
Complete name                            : Strike.up.the.Band.1940.1080p.BluRay.REMUX.AVC.DTS-HD.MA-THEAMBASSADOR.mkv
Format                                   : Matroska
Format version                           : Version 2
File size                                : 32.1 GiB
Duration                                 : 2 h 0 min
Overall bit rate mode                    : Variable
Overall bit rate                         : 38.2 Mb/s
Movie name                               : Strike.up.the.Band.1940.1080p.BluRay.REMUX.AVC.DTS-HD.MA-THEAMBASSADOR
Encoded date                             : UTC 2021-11-15 09:38:47
Writing application                      : MakeMKV v1.16.5 win(x64-release)
Writing library                          : libmakemkv v1.16.5 (1.3.10/1.5.2) win(x64-release)

Video
ID                                       : 1
ID in the original source medium         : 4113 (0x1011)
Format                                   : AVC
Format/Info                              : Advanced Video Codec
Format profile                           : High@L4.1
Format settings                          : CABAC / 4 Ref Frames
Format settings, CABAC                   : Yes
Format settings, Reference frames        : 4 frames
Codec ID                                 : V_MPEG4/ISO/AVC
Duration                                 : 2 h 0 min
Bit rate mode                            : Variable
Bit rate                                 : 34.9 Mb/s
Maximum bit rate                         : 38.0 Mb/s
Width                                    : 1 920 pixels
Height                                   : 1 080 pixels
Display aspect ratio                     : 16:9
Frame rate mode                          : Constant
Frame rate                               : 23.976 (24000/1001) FPS
Color space                              : YUV
Chroma subsampling                       : 4:2:0
Bit depth                                : 8 bits
Scan type                                : Progressive
Bits/(Pixel*Frame)                       : 0.702
Stream size                              : 29.2 GiB (91%)
Language                                 : English
Default                                  : No
Forced                                   : No
Original source medium                   : Blu-ray

Audio #1
ID                                       : 2
ID in the original source medium         : 4352 (0x1100)
Format                                   : DTS XLL
Format/Info                              : Digital Theater Systems
Commercial name                          : DTS-HD Master Audio
Codec ID                                 : A_DTS
Duration                                 : 2 h 0 min
Bit rate mode                            : Variable
Bit rate                                 : 1 801 kb/s
Channel(s)                               : 2 channels
Channel layout                           : L R
Sampling rate                            : 48.0 kHz
Frame rate                               : 93.750 FPS (512 SPF)
Bit depth                                : 24 bits
Compression mode                         : Lossless
Stream size                              : 1.51 GiB (5%)
Title                                    : Stereo
Language                                 : English
Default                                  : Yes
Forced                                   : No
Original source medium                   : Blu-ray

Audio #2
ID                                       : 3
ID in the original source medium         : 4352 (0x1100)
Format                                   : DTS
Format/Info                              : Digital Theater Systems
Codec ID                                 : A_DTS
Duration                                 : 2 h 0 min
Bit rate mode                            : Constant
Bit rate                                 : 1 509 kb/s
Channel(s)                               : 2 channels
Channel layout                           : L R
Sampling rate                            : 48.0 kHz
Frame rate                               : 93.750 FPS (512 SPF)
Bit depth                                : 24 bits
Compression mode                         : Lossy
Stream size                              : 1.26 GiB (4%)
Title                                    : Stereo
Language                                 : English
Default                                  : No
Forced                                   : No
Original source medium                   : Blu-ray

Text
ID                                       : 4
ID in the original source medium         : 4608 (0x1200)
Format                                   : PGS
Codec ID                                 : S_HDMV/PGS
Codec ID/Info                            : Picture based subtitle format used on BDs/HD-DVDs
Duration                                 : 1 h 59 min
Bit rate                                 : 45.3 kb/s
Count of elements                        : 4440
Stream size                              : 38.7 MiB (0%)
Language                                 : English
Default                                  : No
Forced                                   : No
Original source medium                   : Blu-ray

Menu
00:00:00.000                             : en:Chapter 01
00:05:04.804                             : en:Chapter 02
00:09:29.527                             : en:Chapter 03
00:12:26.787                             : en:Chapter 04
00:17:31.550                             : en:Chapter 05
00:20:24.640                             : en:Chapter 06
00:25:11.343                             : en:Chapter 07
00:27:58.343                             : en:Chapter 08
00:31:21.546                             : en:Chapter 09
00:37:31.457                             : en:Chapter 10
00:42:25.584                             : en:Chapter 11
00:44:58.320                             : en:Chapter 12
00:49:38.350                             : en:Chapter 13
00:53:56.691                             : en:Chapter 14
00:56:49.197                             : en:Chapter 15
01:01:39.070                             : en:Chapter 16
01:08:10.044                             : en:Chapter 17
01:12:31.764                             : en:Chapter 18
01:16:16.613                             : en:Chapter 19
01:18:54.646                             : en:Chapter 20
01:21:01.690                             : en:Chapter 21
01:23:36.302                             : en:Chapter 22
01:26:22.677                             : en:Chapter 23
01:28:56.080                             : en:Chapter 24
01:32:57.697                             : en:Chapter 25
01:36:56.977                             : en:Chapter 26
01:40:43.454                             : en:Chapter 27
01:44:37.187                             : en:Chapter 28
01:48:17.616                             : en:Chapter 29
01:51:15.043                             : en:Chapter 30
01:55:00.894                             : en:Chapter 31
01:55:55.531                             : en:Chapter 32
01:57:39.052                             : en:Chapter 33
01:58:28.101                             : en:Chapter 34
01:59:22.488                             : en:Chapter 35
01:59:59.400                             : en:Chapter 36

NFO
 _____ _   _  _____  ___  ___  _________  ___   _____ _____  ___ ______ ___________ 
|_   _| | | ||  ___|/ _ \ |  \/  || ___ \/ _ \ /  ___/  ___|/ _ \|  _  \  _  | ___ \
  | | | |_| || |__ / /_\ \| .  . || |_/ / /_\ \\ `--.\ `--./ /_\ \ | | | | | | |_/ /
  | | |  _  ||  __||  _  || |\/| || ___ \  _  | `--. \`--. \  _  | | | | | | |    / 
  | | | | | || |___| | | || |  | || |_/ / | | |/\__/ /\__/ / | | | |/ /\ \_/ / |\ \ 
  \_/ \_| |_/\____/\_| |_/\_|  |_/\____/\_| |_/\____/\____/\_| |_/___/  \___/\_| \_|Proudly Presents...

This is an ambassadorddl.site Internal Release

Strike.up.the.Band.1940.1080p.BluRay.REMUX.AVC.DTS-HD.MA-THEAMBASSADOR


  _____                      __  ____     ___   
 / ___/__ ___  ___ _______ _/ / /  _/__  / _/__ 
/ (_ / -_) _ \/ -_) __/ _ `/ / _/ // _ \/ _/ _ \
\___/\__/_//_/\__/_/  \_,_/_/ /___/_//_/_/ \___/
                                                
Encoder/Remuxer: crackhub213

Original Title-: Strike Up the Band

Size-----------: 32.06GB

Runtime--------: 2h

IMDb-----------: https://www.imdb.com/title/tt0033110/

BluRay Credits-: Strike.up.the.Band.1940.COMPLETE.BLURAY-INCUBO

   __  ___       ___        ____     ___   
  /  |/  /__ ___/ (_)__ _  /  _/__  / _/__ 
 / /|_/ / -_) _  / / _ `/ _/ // _ \/ _/ _ \
/_/  /_/\__/\_,_/_/\_,_/ /___/_//_/_/ \___/
                                           

Bit rate-------: 34.9 Mb/s

Resolution-----: 1920x1080 @ 23.976 fps

Audio----------: DTS-HD Master Audio

Video----------: MPEG-4 AVC Video

   _  __     __        
  / |/ /__  / /____ ___
 /    / _ \/ __/ -_|_-<
/_/|_/\___/\__/\__/___/

Please do not alter our releases when uploading them elsewhere, keep the NFO intact and file names the same.

If you enjoyed this release, it only takes a second to show your appreciation and say thank you.

Readme/Password

Password & My Message

Screenshots