Fast Download Mirrors

[Exclusive] The Black Cat (1989) • Movie | 1080p.BluRay.REMUX.AVC.DTS-HD.MA-THEAMBASSADOR [22.88GB]

The Black Cat Drama, Fantasy, Horror | 1989 (Italy) Summary: An actress starts seeing visions of a witch character called Levana, which she's supposed to play in an upcoming horror movie, and slowly begins to discover a supernatural plot against her l... Read all
Countries: ItalyLanguages: English

Mark Ravenna, a famous Italian horror film director, sets out to script his latest film entitled ‘Suspiria : De Profundis’. His film is based on Dario Argento’s ‘Suspiria’ and ‘Inferno’ and deals with the story of Levana, Queen of all Witches. Levana is the eldest of the three mistresses of darkness, mother of madness, most powerful of all evil. Ravenna is warned not to make his film in fear of actually summoning Levana to the present day. He does not heed these warnings and casts his wife Anne to play the lead role of Levana. Anne reads the script and is then haunted and terrorized by the evil witch who tells her she will suffer terrible tortures if she continues, and that everyone involved with the production will suffer dire consequences.

Mirrors: MultiUp, GDrive Index, GDTOT
Format: MKV
Credits: Ambassadorddl.site (remux done by crackhub213)
Note: This is an exclusive remux release that can only be found here!
BluRay Credits: The.Black.Cat.1989.COMPLETE.BLURAY-HYPNOKROETE

Download

General
Unique ID                                : 142944506476613375868606183016547346795 (0x6B8A1C4C687F48B39EB1F53EFA9DE96B)
Complete name                            : The.Black.Cat.1989.1080p.BluRay.REMUX.AVC.DTS-HD-THEAMBASSADOR.mkv
Format                                   : Matroska
Format version                           : Version 4
File size                                : 22.9 GiB
Duration                                 : 1 h 28 min
Overall bit rate mode                    : Variable
Overall bit rate                         : 36.8 Mb/s
Movie name                               : The.Black.Cat.1989.1080p.BluRay.REMUX.AVC.DTS-HD-THEAMBASSADOR
Encoded date                             : UTC 2021-11-18 08:39:11
Writing application                      : mkvmerge v63.0.0 ('Everything') 64-bit
Writing library                          : libebml v1.4.2 + libmatroska v1.6.4
Cover                                    : Yes
Attachments                              : cover.jpg

Video
ID                                       : 1
ID in the original source medium         : 4113 (0x1011)
Format                                   : AVC
Format/Info                              : Advanced Video Codec
Format profile                           : High@L4.1
Format settings                          : CABAC / 4 Ref Frames
Format settings, CABAC                   : Yes
Format settings, Reference frames        : 4 frames
Format settings, GOP                     : M=3, N=24
Codec ID                                 : V_MPEG4/ISO/AVC
Duration                                 : 1 h 28 min
Bit rate mode                            : Constant
Bit rate                                 : 35.0 Mb/s
Width                                    : 1 920 pixels
Height                                   : 1 080 pixels
Display aspect ratio                     : 16:9
Frame rate mode                          : Constant
Frame rate                               : 23.976 (24000/1001) FPS
Standard                                 : NTSC
Color space                              : YUV
Chroma subsampling                       : 4:2:0
Bit depth                                : 8 bits
Scan type                                : Progressive
Bits/(Pixel*Frame)                       : 0.704
Stream size                              : 21.7 GiB (95%)
Default                                  : Yes
Forced                                   : No
Color range                              : Limited
Color primaries                          : BT.709
Transfer characteristics                 : BT.709
Matrix coefficients                      : BT.709
Original source medium                   : Blu-ray

Audio
ID                                       : 2
ID in the original source medium         : 4352 (0x1100)
Format                                   : DTS XLL
Format/Info                              : Digital Theater Systems
Commercial name                          : DTS-HD Master Audio
Codec ID                                 : A_DTS
Duration                                 : 1 h 28 min
Bit rate mode                            : Variable
Bit rate                                 : 1 822 kb/s
Channel(s)                               : 2 channels
Channel layout                           : L R
Sampling rate                            : 48.0 kHz
Frame rate                               : 93.750 FPS (512 SPF)
Bit depth                                : 24 bits
Compression mode                         : Lossless
Stream size                              : 1.13 GiB (5%)
Language                                 : English
Default                                  : Yes
Forced                                   : No
Original source medium                   : Blu-ray

Text
ID                                       : 3
ID in the original source medium         : 4608 (0x1200)
Format                                   : PGS
Muxing mode                              : zlib
Codec ID                                 : S_HDMV/PGS
Codec ID/Info                            : Picture based subtitle format used on BDs/HD-DVDs
Duration                                 : 1 h 28 min
Bit rate                                 : 33.1 kb/s
Count of elements                        : 2184
Stream size                              : 21.0 MiB (0%)
Language                                 : English
Default                                  : Yes
Forced                                   : No
Original source medium                   : Blu-ray

Menu
00:00:00.000                             : en:Chapter 01
00:02:53.882                             : en:Chapter 02
00:27:48.249                             : en:Chapter 03
00:48:04.381                             : en:Chapter 04
01:08:51.544                             : en:Chapter 05
01:27:15.563                             : en:Chapter 06
NFO
 _____ _   _  _____  ___  ___  _________  ___   _____ _____  ___ ______ ___________ 
|_   _| | | ||  ___|/ _ \ |  \/  || ___ \/ _ \ /  ___/  ___|/ _ \|  _  \  _  | ___ \
  | | | |_| || |__ / /_\ \| .  . || |_/ / /_\ \\ `--.\ `--./ /_\ \ | | | | | | |_/ /
  | | |  _  ||  __||  _  || |\/| || ___ \  _  | `--. \`--. \  _  | | | | | | |    / 
  | | | | | || |___| | | || |  | || |_/ / | | |/\__/ /\__/ / | | | |/ /\ \_/ / |\ \ 
  \_/ \_| |_/\____/\_| |_/\_|  |_/\____/\_| |_/\____/\____/\_| |_/___/  \___/\_| \_|Proudly Presents...

This is an ambassadorddl Internal Release

The.Black.Cat.1989.1080p.BluRay.REMUX.AVC.DTS-HD-THEAMBASSADOR

  _____                      __  ____     ___   
 / ___/__ ___  ___ _______ _/ / /  _/__  / _/__ 
/ (_ / -_) _ \/ -_) __/ _ `/ / _/ // _ \/ _/ _ \
\___/\__/_//_/\__/_/  \_,_/_/ /___/_//_/_/ \___/
                                                
Encoder/Remuxer: crackhub213

Original Title-: The Black Cat

Size-----------: 22.88GB

Runtime--------: 1 h 28 min

IMDb-----------: https://www.imdb.com/title/tt0096932/

BluRay Credits-: The.Black.Cat.1989.COMPLETE.BLURAY-HYPNOKROETE

   __  ___       ___        ____     ___   
  /  |/  /__ ___/ (_)__ _  /  _/__  / _/__ 
 / /|_/ / -_) _  / / _ `/ _/ // _ \/ _/ _ \
/_/  /_/\__/\_,_/_/\_,_/ /___/_//_/_/ \___/
                                           

Bit rate-------: 35.0 Mb/s

Resolution-----: 1920x1080 @ 23.976 fps

Audio----------: DTS-HD Master Audio

Video----------: MPEG-4 AVC Video

   _  __     __        
  / |/ /__  / /____ ___
 /    / _ \/ __/ -_|_-<
/_/|_/\___/\__/\__/___/

Please do not alter our releases when uploading them elsewhere, keep the NFO intact and file names the same.

If you enjoyed this release, it only takes a second to show your appreciation and say thank you.

Readme/Password

Password & My Message

Screenshots