Fast Download Mirrors

[Exclusive] The Mummy Returns (2001) • Movie | 2160p.BluRay.REMUX.HEVC.DTS-HD.MA.7.1-THEAMBASSADOR [56.48GB]

The Mummy Returns Action, Adventure, Fantasy, Thriller | May 4, 2001 (United States) Summary: The mummified body of Imhotep is shipped to a museum in London, where he once again wakes and begins his campaign of rage and terror.
Countries: United StatesLanguages: English, Arabic

Rick and Evelyn O’Connell, along with their 8-year-old son Alex, discover the key to the legendary Scorpion King’s might: the fabled Bracelet of Anubis. Unfortunately, a newly resurrected Imhotep has designs on the bracelet as well, and isn’t above kidnapping its new bearer, Alex, to gain control of Anubis’s otherworldly army.

Mirrors: MultiUp, GDrive Index, GDTOT
Format: MKV
Credits: Ambassadorddl.site (remux done by XBlΛZE)
Note: This is an exclusive remux release that can only be found here! 
BluRay Credits: [木乃伊归来 The Mummy Returns 2001][4K][DIY简繁双语字幕][wezjh@OB-71700][1298586][60.48GB]

Download

General
Unique ID                                : 91880390912784532911754756083304923642 (0x451F85058F70BF5CDF0A17D10ED081FA)
Complete name                            : The.Mummy.Returns.2001.2160p.BluRay.REMUX.HEVC.DTS-HD.MA.7.1-THEAMBASSADOR.mkv
Format                                   : Matroska
Format version                           : Version 2
File size                                : 56.5 GiB
Duration                                 : 2 h 9 min
Overall bit rate mode                    : Variable
Overall bit rate                         : 62.4 Mb/s
Movie name                               : The Mummy Returns
Encoded date                             : UTC 2021-08-07 07:30:56
Writing application                      : MakeMKV v1.16.4 win(x64-release)
Writing library                          : libmakemkv v1.16.4 (1.3.10/1.5.2) win(x64-release)
Cover                                    : Yes
Attachments                              : cover.jpg

Video
ID                                       : 1
ID in the original source medium         : 4113 (0x1011)
Format                                   : HEVC
Format/Info                              : High Efficiency Video Coding
Format profile                           : Main 10@L5.1@High
HDR format                               : SMPTE ST 2086, HDR10 compatible
Codec ID                                 : V_MPEGH/ISO/HEVC
Duration                                 : 2 h 9 min
Bit rate                                 : 52.0 Mb/s
Width                                    : 3 840 pixels
Height                                   : 2 160 pixels
Display aspect ratio                     : 16:9
Frame rate mode                          : Constant
Frame rate                               : 23.976 (24000/1001) FPS
Color space                              : YUV
Chroma subsampling                       : 4:2:0 (Type 2)
Bit depth                                : 10 bits
Bits/(Pixel*Frame)                       : 0.261
Stream size                              : 47.0 GiB (83%)
Writing library                          : ATEME Titan File 3.7.9 (4.7.9.0)
Language                                 : English
Default                                  : No
Forced                                   : No
Color range                              : Limited
Color primaries                          : BT.2020
Transfer characteristics                 : PQ
Matrix coefficients                      : BT.2020 non-constant
Mastering display color primaries        : Display P3
Mastering display luminance              : min: 0.0050 cd/m2, max: 1000 cd/m2
Maximum Content Light Level              : 984 cd/m2
Maximum Frame-Average Light Level        : 302 cd/m2
Original source medium                   : Blu-ray

Audio #1
ID                                       : 2
ID in the original source medium         : 4352 (0x1100)
Format                                   : DTS XLL X
Format/Info                              : Digital Theater Systems
Commercial name                          : DTS-HD Master Audio
Codec ID                                 : A_DTS
Duration                                 : 2 h 9 min
Bit rate mode                            : Variable
Bit rate                                 : 8 365 kb/s
Channel(s)                               : 8 channels
Channel(s)_Original                      : Object Based
ChannelLayout_Original                   : Object Based
Sampling rate                            : 48.0 kHz
Frame rate                               : 93.750 FPS (512 SPF)
Bit depth                                : 24 bits
Stream size                              : 7.57 GiB (13%)
Title                                    : Surround 7.1
Language                                 : English
Default                                  : Yes
Forced                                   : No
Original source medium                   : Blu-ray

Audio #2
ID                                       : 3
ID in the original source medium         : 4352 (0x1100)
Format                                   : DTS
Format/Info                              : Digital Theater Systems
Codec ID                                 : A_DTS
Duration                                 : 2 h 9 min
Bit rate mode                            : Constant
Bit rate                                 : 1 509 kb/s
Channel(s)                               : 6 channels
Channel layout                           : C L R Ls Rs LFE
Sampling rate                            : 48.0 kHz
Frame rate                               : 93.750 FPS (512 SPF)
Bit depth                                : 24 bits
Compression mode                         : Lossy
Stream size                              : 1.37 GiB (2%)
Title                                    : Surround 5.1
Language                                 : English
Default                                  : No
Forced                                   : No
Original source medium                   : Blu-ray

Audio #3
ID                                       : 4
ID in the original source medium         : 4353 (0x1101)
Format                                   : DTS
Format/Info                              : Digital Theater Systems
Codec ID                                 : A_DTS
Duration                                 : 2 h 9 min
Bit rate mode                            : Constant
Bit rate                                 : 255 kb/s
Channel(s)                               : 2 channels
Channel layout                           : L R
Sampling rate                            : 48.0 kHz
Frame rate                               : 93.750 FPS (512 SPF)
Bit depth                                : 24 bits
Compression mode                         : Lossy
Stream size                              : 236 MiB (0%)
Title                                    : Stereo
Language                                 : English
Default                                  : No
Forced                                   : No
Original source medium                   : Blu-ray

Audio #4
ID                                       : 5
ID in the original source medium         : 4356 (0x1104)
Format                                   : AC-3
Format/Info                              : Audio Coding 3
Commercial name                          : Dolby Digital
Format settings                          : Dolby Surround
Codec ID                                 : A_AC3
Duration                                 : 2 h 9 min
Bit rate mode                            : Constant
Bit rate                                 : 192 kb/s
Channel(s)                               : 2 channels
Channel layout                           : L R
Sampling rate                            : 48.0 kHz
Frame rate                               : 31.250 FPS (1536 SPF)
Compression mode                         : Lossy
Stream size                              : 178 MiB (0%)
Title                                    : Stereo
Language                                 : English
Service kind                             : Complete Main
Default                                  : No
Forced                                   : No
Original source medium                   : Blu-ray

Text #1
ID                                       : 6
ID in the original source medium         : 4768 (0x12A0)
Format                                   : PGS
Codec ID                                 : S_HDMV/PGS
Codec ID/Info                            : Picture based subtitle format used on BDs/HD-DVDs
Duration                                 : 2 h 6 min
Bit rate                                 : 24.0 kb/s
Count of elements                        : 2222
Stream size                              : 21.7 MiB (0%)
Language                                 : English
Default                                  : No
Forced                                   : No
Original source medium                   : Blu-ray

Text #2
ID                                       : 8
ID in the original source medium         : 4769 (0x12A1)
Format                                   : PGS
Codec ID                                 : S_HDMV/PGS
Codec ID/Info                            : Picture based subtitle format used on BDs/HD-DVDs
Duration                                 : 2 h 1 min
Bit rate                                 : 22.1 kb/s
Count of elements                        : 1954
Stream size                              : 19.2 MiB (0%)
Language                                 : Spanish
Default                                  : No
Forced                                   : No
Original source medium                   : Blu-ray

Text #3
ID                                       : 10
ID in the original source medium         : 4770 (0x12A2)
Format                                   : PGS
Codec ID                                 : S_HDMV/PGS
Codec ID/Info                            : Picture based subtitle format used on BDs/HD-DVDs
Duration                                 : 2 h 1 min
Bit rate                                 : 22.4 kb/s
Count of elements                        : 1952
Stream size                              : 19.4 MiB (0%)
Language                                 : French
Default                                  : No
Forced                                   : No
Original source medium                   : Blu-ray

Text #4
ID                                       : 12
ID in the original source medium         : 4771 (0x12A3)
Format                                   : PGS
Codec ID                                 : S_HDMV/PGS
Codec ID/Info                            : Picture based subtitle format used on BDs/HD-DVDs
Duration                                 : 1 h 56 min
Bit rate                                 : 1 941 b/s
Count of elements                        : 218
Stream size                              : 1.62 MiB (0%)
Language                                 : Spanish
Default                                  : No
Forced                                   : No
Original source medium                   : Blu-ray

Text #5
ID                                       : 14
ID in the original source medium         : 4772 (0x12A4)
Format                                   : PGS
Codec ID                                 : S_HDMV/PGS
Codec ID/Info                            : Picture based subtitle format used on BDs/HD-DVDs
Duration                                 : 1 h 56 min
Bit rate                                 : 2 032 b/s
Count of elements                        : 216
Stream size                              : 1.69 MiB (0%)
Language                                 : French
Default                                  : No
Forced                                   : No
Original source medium                   : Blu-ray

Text #6
ID                                       : 16
ID in the original source medium         : 4773 (0x12A5)
Format                                   : PGS
Codec ID                                 : S_HDMV/PGS
Codec ID/Info                            : Picture based subtitle format used on BDs/HD-DVDs
Duration                                 : 2 h 2 min
Bit rate                                 : 10.7 kb/s
Count of elements                        : 1885
Stream size                              : 9.40 MiB (0%)
Language                                 : Chinese
Default                                  : No
Forced                                   : No
Original source medium                   : Blu-ray

Text #7
ID                                       : 18
ID in the original source medium         : 4774 (0x12A6)
Format                                   : PGS
Codec ID                                 : S_HDMV/PGS
Codec ID/Info                            : Picture based subtitle format used on BDs/HD-DVDs
Duration                                 : 2 h 2 min
Bit rate                                 : 11.2 kb/s
Count of elements                        : 1885
Stream size                              : 9.82 MiB (0%)
Language                                 : Chinese
Default                                  : No
Forced                                   : No
Original source medium                   : Blu-ray

Text #8
ID                                       : 20
ID in the original source medium         : 4775 (0x12A7)
Format                                   : PGS
Codec ID                                 : S_HDMV/PGS
Codec ID/Info                            : Picture based subtitle format used on BDs/HD-DVDs
Duration                                 : 2 h 2 min
Bit rate                                 : 21.1 kb/s
Count of elements                        : 1885
Stream size                              : 18.5 MiB (0%)
Language                                 : Chinese
Default                                  : No
Forced                                   : No
Original source medium                   : Blu-ray

Text #9
ID                                       : 22
ID in the original source medium         : 4776 (0x12A8)
Format                                   : PGS
Codec ID                                 : S_HDMV/PGS
Codec ID/Info                            : Picture based subtitle format used on BDs/HD-DVDs
Duration                                 : 2 h 2 min
Bit rate                                 : 21.6 kb/s
Count of elements                        : 1885
Stream size                              : 18.9 MiB (0%)
Language                                 : Chinese
Default                                  : No
Forced                                   : No
Original source medium                   : Blu-ray

Menu
00:00:00.000                             : en:Chapter 01
00:04:40.113                             : en:Chapter 02
00:10:02.518                             : en:Chapter 03
00:13:32.394                             : en:Chapter 04
00:17:02.938                             : en:Chapter 05
00:23:19.773                             : en:Chapter 06
00:26:16.157                             : en:Chapter 07
00:35:24.247                             : en:Chapter 08
00:42:00.684                             : en:Chapter 09
00:46:50.724                             : en:Chapter 10
00:56:02.150                             : en:Chapter 11
01:06:36.033                             : en:Chapter 12
01:16:59.281                             : en:Chapter 13
01:27:32.664                             : en:Chapter 14
01:35:26.637                             : en:Chapter 15
01:42:43.073                             : en:Chapter 16
01:47:42.747                             : en:Chapter 17
01:51:19.839                             : en:Chapter 18
01:53:25.215                             : en:Chapter 19
02:01:48.175                             : en:Chapter 20
02:09:31.847                             : en:Chapter 21
NFO
 _____ _   _  _____  ___  ___  _________  ___   _____ _____  ___ ______ ___________ 
|_   _| | | ||  ___|/ _ \ |  \/  || ___ \/ _ \ /  ___/  ___|/ _ \|  _  \  _  | ___ \
  | | | |_| || |__ / /_\ \| .  . || |_/ / /_\ \\ `--.\ `--./ /_\ \ | | | | | | |_/ /
  | | |  _  ||  __||  _  || |\/| || ___ \  _  | `--. \`--. \  _  | | | | | | |    / 
  | | | | | || |___| | | || |  | || |_/ / | | |/\__/ /\__/ / | | | |/ /\ \_/ / |\ \ 
  \_/ \_| |_/\____/\_| |_/\_|  |_/\____/\_| |_/\____/\____/\_| |_/___/  \___/\_| \_|Proudly Presents...

This is an ambassadorddl.site Internal Release

The.Mummy.Returns.2001.2160p.BluRay.REMUX.HEVC.DTS-HD.MA.7.1-THEAMBASSADOR


  _____                      __  ____     ___   
 / ___/__ ___  ___ _______ _/ / /  _/__  / _/__ 
/ (_ / -_) _ \/ -_) __/ _ `/ / _/ // _ \/ _/ _ \
\___/\__/_//_/\__/_/  \_,_/_/ /___/_//_/_/ \___/
                                                
Encoder/Remuxer: XBlΛZE

Original Title-: The Mummy Returns

Size-----------: 56.48GB

Runtime--------: 2h 9m

IMDb-----------: https://www.imdb.com/title/tt0209163/

BluRay Credits-: [木乃伊归来 The Mummy Returns 2001][4K][DIY简繁双语字幕][wezjh@OB-71700][1298586][60.48GB].iso

   __  ___       ___        ____     ___   
  /  |/  /__ ___/ (_)__ _  /  _/__  / _/__ 
 / /|_/ / -_) _  / / _ `/ _/ // _ \/ _/ _ \
/_/  /_/\__/\_,_/_/\_,_/ /___/_//_/_/ \___/
                                           

Bit rate-------: 52.0 Mb/s

Resolution-----: 3840x2160 @ 23.976 fps

Audio----------: DTS-HD Master Audio

Video----------: MPEG-H HEVC Video

   _  __     __        
  / |/ /__  / /____ ___
 /    / _ \/ __/ -_|_-<
/_/|_/\___/\__/\__/___/

Please do not alter our releases when uploading them elsewhere, keep the NFO intact and file names the same.

If you enjoyed this release, it only takes a second to show your appreciation and say thank you.

Readme/Password

Password & My Message

Screenshots