Fast Download Mirrors

[Exclusive] The Mummy: Tomb of the Dragon Emperor (2008) • Movie | 2160p.BluRay.REMUX.HEVC.Multi.DTS-HD.MA-THEAMBASSADOR [54.25GB]

The Mummy: Tomb of the Dragon Emperor Action, Fantasy, Horror, War | August 1, 2008 (United States) Summary: In the Far East, Alex O'Connell, the son of famed mummy fighters Rick and Evy O'Connell, unearths the mummy of the first Emperor of Qin -- a shape-shifting entity cursed by a witch centuries... Read all
Countries: United States, Germany, China, CanadaLanguages: English, Mandarin, Sanskrit

Archaeologist Rick O’Connell travels to China, pitting him against an emperor from the 2,000-year-old Han dynasty who’s returned from the dead to pursue a quest for world domination. This time, O’Connell enlists the help of his wife and son to quash the so-called ‘Dragon Emperor’ and his abuse of supernatural power.

Mirrors: MultiUp, GDrive Index, GDTOT
Format: MKV
Credits: Ambassadorddl.site (remux done by XBlΛZE)
Note: This is an exclusive remux release that can only be found here!
BluRay Credits: [木乃伊3 The Mummy - Tomb of the Dragon Emperor 2008][4K][DIY简繁双语字幕][wezjh@OB-71748][1997679][58.14GB]

Download

General
Unique ID                   : 20311943354029754712914279405134118468 (0xF47F0205640BB62B3F314256ED97E44)
Complete name               : The.Mummy.Tomb.of.the.Dragon.Emperor.2008.2160p.BluRay.REMUX.HEVC.Multi.DTS-HD.MA-THEAMBASSADOR.mkv
Format                      : Matroska
Format version              : Version 4
File size                   : 54.2 GiB
Duration                    : 1 h 51 min
Overall bit rate mode       : Variable
Overall bit rate            : 69.6 Mb/s
Movie name                  : The.Mummy.Tomb.of.the.Dragon.Emperor.2008.2160p.BluRay.REMUX.HEVC.Multi.DTS-HD.MA.7.1-THEAMBASSADOR
Encoded date                : UTC 2021-11-17 09:27:55
Writing application         : mkvmerge v62.0.0 ('Apollo') 64-bit
Writing library             : libebml v1.4.2 + libmatroska v1.6.4
Cover                       : Yes
Attachments                 : cover.jpg

Video
ID                          : 1
ID in the original source m : 4113 (0x1011)
Format                      : HEVC
Format/Info                 : High Efficiency Video Coding
Format profile              : Main 10@L5.1@High
HDR format                  : SMPTE ST 2086, HDR10 compatible
Codec ID                    : V_MPEGH/ISO/HEVC
Duration                    : 1 h 51 min
Bit rate                    : 63.0 Mb/s
Width                       : 3 840 pixels
Height                      : 2 160 pixels
Display aspect ratio        : 16:9
Frame rate mode             : Constant
Frame rate                  : 23.976 (24000/1001) FPS
Color space                 : YUV
Chroma subsampling          : 4:2:0 (Type 2)
Bit depth                   : 10 bits
Bits/(Pixel*Frame)          : 0.317
Stream size                 : 49.1 GiB (91%)
Writing library             : ATEME Titan File 3.7.8 (4.7.8.0)
Default                     : Yes
Forced                      : No
Color range                 : Limited
Color primaries             : BT.2020
Transfer characteristics    : PQ
Matrix coefficients         : BT.2020 non-constant
Mastering display color pri : Display P3
Mastering display luminance : min: 0.0050 cd/m2, max: 1000 cd/m2
Maximum Content Light Level : 1000 cd/m2
Maximum Frame-Average Light : 730 cd/m2
Original source medium      : Blu-ray

Audio #1
ID                          : 2
ID in the original source m : 4352 (0x1100)
Format                      : DTS XLL X
Format/Info                 : Digital Theater Systems
Commercial name             : DTS-HD Master Audio
Codec ID                    : A_DTS
Duration                    : 1 h 51 min
Bit rate mode               : Variable
Bit rate                    : 4 730 kb/s
Channel(s)                  : 8 channels
Channel(s)_Original         : Object Based
ChannelLayout_Original      : Object Based
Sampling rate               : 48.0 kHz
Frame rate                  : 93.750 FPS (512 SPF)
Bit depth                   : 24 bits
Stream size                 : 3.69 GiB (7%)
Language                    : English
Default                     : Yes
Forced                      : No
Original source medium      : Blu-ray

Audio #2
ID                          : 3
ID in the original source m : 4353 (0x1101)
Format                      : DTS
Format/Info                 : Digital Theater Systems
Codec ID                    : A_DTS
Duration                    : 1 h 51 min
Bit rate mode               : Constant
Bit rate                    : 255 kb/s
Channel(s)                  : 2 channels
Channel layout              : L R
Sampling rate               : 48.0 kHz
Frame rate                  : 93.750 FPS (512 SPF)
Bit depth                   : 24 bits
Compression mode            : Lossy
Stream size                 : 204 MiB (0%)
Language                    : English
Default                     : Yes
Forced                      : No
Original source medium      : Blu-ray

Audio #3
ID                          : 4
ID in the original source m : 4354 (0x1102)
Format                      : DTS
Format/Info                 : Digital Theater Systems
Codec ID                    : A_DTS
Duration                    : 1 h 51 min
Bit rate mode               : Constant
Bit rate                    : 768 kb/s
Channel(s)                  : 6 channels
Channel layout              : C L R Ls Rs LFE
Sampling rate               : 48.0 kHz
Frame rate                  : 93.750 FPS (512 SPF)
Bit depth                   : 24 bits
Compression mode            : Lossy
Stream size                 : 613 MiB (1%)
Language                    : Spanish
Default                     : Yes
Forced                      : No
Original source medium      : Blu-ray

Audio #4
ID                          : 5
ID in the original source m : 4355 (0x1103)
Format                      : DTS
Format/Info                 : Digital Theater Systems
Codec ID                    : A_DTS
Duration                    : 1 h 51 min
Bit rate mode               : Constant
Bit rate                    : 768 kb/s
Channel(s)                  : 6 channels
Channel layout              : C L R Ls Rs LFE
Sampling rate               : 48.0 kHz
Frame rate                  : 93.750 FPS (512 SPF)
Bit depth                   : 24 bits
Compression mode            : Lossy
Stream size                 : 613 MiB (1%)
Language                    : French
Default                     : Yes
Forced                      : No
Original source medium      : Blu-ray

Text #1
ID                          : 6
ID in the original source m : 4768 (0x12A0)
Format                      : PGS
Muxing mode                 : zlib
Codec ID                    : S_HDMV/PGS
Codec ID/Info               : Picture based subtitle format used on BDs/HD-DVDs
Duration                    : 1 h 40 min
Bit rate                    : 29.1 kb/s
Count of elements           : 2158
Stream size                 : 20.9 MiB (0%)
Language                    : English
Default                     : Yes
Forced                      : No
Original source medium      : Blu-ray

Text #2
ID                          : 7
ID in the original source m : 4769 (0x12A1)
Format                      : PGS
Muxing mode                 : zlib
Codec ID                    : S_HDMV/PGS
Codec ID/Info               : Picture based subtitle format used on BDs/HD-DVDs
Duration                    : 1 h 40 min
Bit rate                    : 21.8 kb/s
Count of elements           : 1730
Stream size                 : 15.7 MiB (0%)
Language                    : Spanish
Default                     : Yes
Forced                      : No
Original source medium      : Blu-ray

Text #3
ID                          : 8
ID in the original source m : 4770 (0x12A2)
Format                      : PGS
Muxing mode                 : zlib
Codec ID                    : S_HDMV/PGS
Codec ID/Info               : Picture based subtitle format used on BDs/HD-DVDs
Duration                    : 1 h 40 min
Bit rate                    : 27.2 kb/s
Count of elements           : 1852
Stream size                 : 19.6 MiB (0%)
Language                    : French
Default                     : Yes
Forced                      : No
Original source medium      : Blu-ray

Text #4
ID                          : 9
ID in the original source m : 4771 (0x12A3)
Format                      : PGS
Muxing mode                 : zlib
Codec ID                    : S_HDMV/PGS
Codec ID/Info               : Picture based subtitle format used on BDs/HD-DVDs
Duration                    : 1 h 40 min
Bit rate                    : 2 849 b/s
Count of elements           : 268
Stream size                 : 2.04 MiB (0%)
Language                    : Spanish
Default                     : Yes
Forced                      : No
Original source medium      : Blu-ray

Text #5
ID                          : 10
ID in the original source m : 4772 (0x12A4)
Format                      : PGS
Muxing mode                 : zlib
Codec ID                    : S_HDMV/PGS
Codec ID/Info               : Picture based subtitle format used on BDs/HD-DVDs
Duration                    : 1 h 40 min
Bit rate                    : 3 221 b/s
Count of elements           : 274
Stream size                 : 2.32 MiB (0%)
Language                    : French
Default                     : Yes
Forced                      : No
Original source medium      : Blu-ray

Text #6
ID                          : 11
ID in the original source m : 4773 (0x12A5)
Format                      : PGS
Muxing mode                 : zlib
Codec ID                    : S_HDMV/PGS
Codec ID/Info               : Picture based subtitle format used on BDs/HD-DVDs
Duration                    : 1 h 42 min
Bit rate                    : 14.2 kb/s
Count of elements           : 1460
Stream size                 : 10.4 MiB (0%)
Language                    : Chinese
Default                     : Yes
Forced                      : No
Original source medium      : Blu-ray

Menu
00:00:00.000                : :Search for Immortality
00:05:24.074                : :Cursed by the Wizard
00:09:52.133                : :Retired Life
00:14:15.480                : :Like Father, Like Son
00:19:13.402                : :Finding the Tomb
00:24:33.681                : :One Last Assignment
00:30:57.647                : :Bringing Order
00:35:30.962                : :Rise of the Emperor
00:42:16.367                : :Happy New Year
00:48:17.686                : :Family Meeting
00:52:26.894                : :Not My Type
00:57:28.528                : :Defending the Gateway
01:02:40.590                : :Atop the Golden Tower
01:09:52.230                : :Shangri-La
01:15:54.216                : :Reaching the Pool
01:21:00.981                : :Awaken the Army
01:25:33.420                : :Prepare for Battle
01:33:54.963                : :Divide and Conquer
01:39:53.946                : :The Next Adventure
01:41:28.499                : :End Titles

NFO
 _____ _   _  _____  ___  ___  _________  ___   _____ _____  ___ ______ ___________ 
|_   _| | | ||  ___|/ _ \ |  \/  || ___ \/ _ \ /  ___/  ___|/ _ \|  _  \  _  | ___ \
  | | | |_| || |__ / /_\ \| .  . || |_/ / /_\ \\ `--.\ `--./ /_\ \ | | | | | | |_/ /
  | | |  _  ||  __||  _  || |\/| || ___ \  _  | `--. \`--. \  _  | | | | | | |    / 
  | | | | | || |___| | | || |  | || |_/ / | | |/\__/ /\__/ / | | | |/ /\ \_/ / |\ \ 
  \_/ \_| |_/\____/\_| |_/\_|  |_/\____/\_| |_/\____/\____/\_| |_/___/  \___/\_| \_|Proudly Presents...

This is an ambassadorddl Internal Release

The.Mummy.Tomb.of.the.Dragon.Emperor.2008.2160p.BluRay.REMUX.HEVC.Multi.DTS-HD.MA-THEAMBASSADOR


  _____                      __  ____     ___   
 / ___/__ ___  ___ _______ _/ / /  _/__  / _/__ 
/ (_ / -_) _ \/ -_) __/ _ `/ / _/ // _ \/ _/ _ \
\___/\__/_//_/\__/_/  \_,_/_/ /___/_//_/_/ \___/
                                                
Encoder/Remuxer: XBlΛZE

Original Title-: The Mummy: Tomb of the Dragon Emperor

Size-----------: 54.25GB

Runtime--------: 1 h 51 min

IMDb-----------: https://www.imdb.com/title/tt0859163/

BluRay Credits-: [木乃伊3 The Mummy - Tomb of the Dragon Emperor 2008][4K][DIY简繁双语字幕][wezjh@OB-71748][1997679][58.14GB]

   __  ___       ___        ____     ___   
  /  |/  /__ ___/ (_)__ _  /  _/__  / _/__ 
 / /|_/ / -_) _  / / _ `/ _/ // _ \/ _/ _ \
/_/  /_/\__/\_,_/_/\_,_/ /___/_//_/_/ \___/
                                           

Bit rate-------: 63.0 Mb/s

Resolution-----: 3840x2160 @ 23.976 fps

Audio----------: DTS-HD Master Audio

Video----------: MPEG-H HEVC Video

   _  __     __        
  / |/ /__  / /____ ___
 /    / _ \/ __/ -_|_-<
/_/|_/\___/\__/\__/___/

Please do not alter our releases when uploading them elsewhere, keep the NFO intact and file names the same.

If you enjoyed this release, it only takes a second to show your appreciation and say thank you.

Readme/Password

Password & My Message

Screenshots