Fast Download Mirrors

[Exclusive] The Outsiders (1983) • Movie | THEATRICAL.1080p.BluRay.REMUX.AVC.DTS-HD.MA.5.1-THEAMBASSADOR [26.85GB]

The Outsiders (1983)
The Outsiders Crime, Drama | March 25, 1983 (United States) Summary: The rivalry between two gangs, the poor Greasers and the rich Socs, only heats up when one gang member kills a member of the other.
Countries: United States, FranceLanguages: English

When two poor Greasers, Johnny and Ponyboy, are assaulted by a vicious gang, the Socs, and Johnny kills one of the attackers, tension begins to mount between the two rival gangs, setting off a turbulent chain of events.

Mirrors: MultiUp, GDrive Index, GDTOT
Format: MKV
Note: This is an exclusive remux release that can only be found here!
Credits: ambassadorddl.site (Crackhub213)

Download

General
Unique ID                                : 252975456625674771409669613038735135977 (0xBE514CFB661B8A78BD57E7E3036B14E9)
Complete name                            : The.Outsiders.1983.THEATRICAL.1080p.BluRay.REMUX.AVC.DTS-HD.MA.5.1-THEAMBASSADOR.mkv
Format                                   : Matroska
Format version                           : Version 4
File size                                : 26.9 GiB
Duration                                 : 1 h 31 min
Overall bit rate mode                    : Variable
Overall bit rate                         : 41.9 Mb/s
Movie name                               : The.Outsiders.1983.THEATRICAL.1080p.BluRay.REMUX.AVC.DTS-HD.MA.5.1-THEAMBASSADOR
Encoded date                             : UTC 2021-11-13 15:39:04
Writing application                      : mkvmerge v13.0.0 ('The Juggler') 64bit
Writing library                          : libebml v1.3.4 + libmatroska v1.4.5

Video
ID                                       : 1
Format                                   : AVC
Format/Info                              : Advanced Video Codec
Format profile                           : High@L4.1
Format settings                          : CABAC / 3 Ref Frames
Format settings, CABAC                   : Yes
Format settings, Reference frames        : 3 frames
Codec ID                                 : V_MPEG4/ISO/AVC
Duration                                 : 1 h 31 min
Bit rate mode                            : Variable
Bit rate                                 : 35.4 Mb/s
Maximum bit rate                         : 36.0 Mb/s
Width                                    : 1 920 pixels
Height                                   : 1 080 pixels
Display aspect ratio                     : 16:9
Frame rate mode                          : Constant
Frame rate                               : 23.976 (24000/1001) FPS
Color space                              : YUV
Chroma subsampling                       : 4:2:0
Bit depth                                : 8 bits
Scan type                                : Progressive
Bits/(Pixel*Frame)                       : 0.712
Stream size                              : 22.7 GiB (85%)
Default                                  : Yes
Forced                                   : No
Color range                              : Limited
Color primaries                          : BT.709
Transfer characteristics                 : BT.709
Matrix coefficients                      : BT.709

Audio #1
ID                                       : 2
Format                                   : DTS XLL
Format/Info                              : Digital Theater Systems
Commercial name                          : DTS-HD Master Audio
Codec ID                                 : A_DTS
Duration                                 : 1 h 31 min
Bit rate mode                            : Variable
Bit rate                                 : 4 151 kb/s
Channel(s)                               : 6 channels
Channel layout                           : C L R Ls Rs LFE
Sampling rate                            : 48.0 kHz
Frame rate                               : 93.750 FPS (512 SPF)
Bit depth                                : 24 bits
Compression mode                         : Lossless
Stream size                              : 2.66 GiB (10%)
Language                                 : English
Default                                  : Yes
Forced                                   : No

Audio #2
ID                                       : 3
Format                                   : PCM
Format settings                          : Little / Signed
Codec ID                                 : A_PCM/INT/LIT
Duration                                 : 1 h 31 min
Bit rate mode                            : Constant
Bit rate                                 : 2 304 kb/s
Channel(s)                               : 2 channels
Sampling rate                            : 48.0 kHz
Frame rate                               : 200.000 FPS (240 SPF)
Bit depth                                : 24 bits
Stream size                              : 1.48 GiB (5%)
Language                                 : German
Default                                  : No
Forced                                   : No

Text #1
ID                                       : 4
Format                                   : PGS
Muxing mode                              : zlib
Codec ID                                 : S_HDMV/PGS
Codec ID/Info                            : Picture based subtitle format used on BDs/HD-DVDs
Duration                                 : 1 h 30 min
Bit rate                                 : 38.0 kb/s
Count of elements                        : 2460
Stream size                              : 24.5 MiB (0%)
Language                                 : English
Default                                  : Yes
Forced                                   : No

Text #2
ID                                       : 5
Format                                   : PGS
Muxing mode                              : zlib
Codec ID                                 : S_HDMV/PGS
Codec ID/Info                            : Picture based subtitle format used on BDs/HD-DVDs
Duration                                 : 1 h 27 min
Bit rate                                 : 30.4 kb/s
Count of elements                        : 1828
Stream size                              : 19.1 MiB (0%)
Language                                 : German
Default                                  : No
Forced                                   : No

Text #3
ID                                       : 6
Format                                   : PGS
Muxing mode                              : zlib
Codec ID                                 : S_HDMV/PGS
Codec ID/Info                            : Picture based subtitle format used on BDs/HD-DVDs
Duration                                 : 1 h 27 min
Bit rate                                 : 1 478 b/s
Count of elements                        : 90
Stream size                              : 950 KiB (0%)
Language                                 : German
Default                                  : No
Forced                                   : No

Menu
00:00:00.000                             : en:Chapter 1
00:06:04.489                             : en:Chapter 2
00:13:40.903                             : en:Chapter 3
00:22:00.527                             : en:Chapter 4
00:31:54.537                             : en:Chapter 5
00:40:05.903                             : en:Chapter 6
00:51:30.879                             : en:Chapter 7
01:00:55.652                             : en:Chapter 8
01:07:26.959                             : en:Chapter 9
01:12:20.169                             : en:Chapter 10
01:19:10.912                             : en:Chapter 11
01:25:28.581                             : en:Chapter 12

NFO
 _____ _   _  _____  ___  ___  _________  ___   _____ _____  ___ ______ ___________ 
|_   _| | | ||  ___|/ _ \ |  \/  || ___ \/ _ \ /  ___/  ___|/ _ \|  _  \  _  | ___ \
  | | | |_| || |__ / /_\ \| .  . || |_/ / /_\ \\ `--.\ `--./ /_\ \ | | | | | | |_/ /
  | | |  _  ||  __||  _  || |\/| || ___ \  _  | `--. \`--. \  _  | | | | | | |    / 
  | | | | | || |___| | | || |  | || |_/ / | | |/\__/ /\__/ / | | | |/ /\ \_/ / |\ \ 
  \_/ \_| |_/\____/\_| |_/\_|  |_/\____/\_| |_/\____/\____/\_| |_/___/  \___/\_| \_|Proudly Presents...

This is an ambassadorddl.site Internal Release

The.Outsiders.1983.THEATRICAL.1080p.BluRay.REMUX.AVC.DTS-HD.MA.5.1-THEAMBASSADOR


  _____                      __  ____     ___   
 / ___/__ ___  ___ _______ _/ / /  _/__  / _/__ 
/ (_ / -_) _ \/ -_) __/ _ `/ / _/ // _ \/ _/ _ \
\___/\__/_//_/\__/_/  \_,_/_/ /___/_//_/_/ \___/
                                                
Encoder/Remuxer: crackhub213

Original Title-: The Outsiders

Size-----------: 26.85GB

Runtime--------: 1:31:44

IMDb-----------: https://www.imdb.com/title/tt0086066/

BluRay Credits-: The.Outsiders.1983.THEATRICAL.1080p.BluRay.AVC.DTS-HD.MA.5.1-HYPNOKROETE

   __  ___       ___        ____     ___   
  /  |/  /__ ___/ (_)__ _  /  _/__  / _/__ 
 / /|_/ / -_) _  / / _ `/ _/ // _ \/ _/ _ \
/_/  /_/\__/\_,_/_/\_,_/ /___/_//_/_/ \___/
                                           

Bit rate-------: 35.4 Mb/s

Resolution-----: 1920x1080 @ 23.976 fps

Audio----------: DTS-HD Master Audio

Video----------: MPEG-4 AVC Video

   _  __     __        
  / |/ /__  / /____ ___
 /    / _ \/ __/ -_|_-<
/_/|_/\___/\__/\__/___/

Please do not alter our releases when uploading them elsewhere, keep the NFO intact and file names the same.

If you enjoyed this release, it only takes a second to show your appreciation and say thank you.

Readme/Password

Password & My Message

Screenshots