Fast Download Mirrors

Extinct (2021) • Movie

Extinct (2021) • Movie
Extinct 84min | Animation, Adventure, Comedy, Family | October 16, 2021 (United States) Summary: Op and Ed accidentally time-travel from the Galapagos Islands in 1835 to present-day Shanghai. They make their way through the city in confusion and make the horrifying discovery that the sp... Read all
Countries: United States, ChinaLanguages: English

Op and Ed accidentally time-travel from the Galapagos Islands in 1835 to present-day Shanghai. They make their way through the city in confusion and make the horrifying discovery that the species to which they belong became extinct shortly after.

Mirrors: MultiUp, Gdrive[GDTOT, Sharer]
Format: MKV
Credits: RARBG
Video
ID : 1
Format : AVC
Format/Info : Advanced Video Codec
Format profile : Main@L4
Format settings : CABAC / 4 Ref Frames
Format settings, CABAC : Yes
Format settings, Reference frames : 4 frames
Codec ID : V_MPEG4/ISO/AVC
Duration : 1 h 23 min
Bit rate : 5 494 kb/s
Width : 1 920 pixels
Height : 1 080 pixels
Display aspect ratio : 16:9
Frame rate mode : Constant
Frame rate : 24.000 FPS
Color space : YUV
Chroma subsampling : 4:2:0
Bit depth : 8 bits
Scan type : Progressive
Bits/(Pixel*Frame) : 0.110
Stream size : 3.22 GiB (96%)
Language : English
Default : Yes
Forced : No

Audio
ID : 2
Format : E-AC-3
Format/Info : Enhanced AC-3
Commercial name : Dolby Digital Plus
Codec ID : A_EAC3
Duration : 1 h 23 min
Bit rate mode : Constant
Bit rate : 256 kb/s
Channel(s) : 6 channels
Channel layout : L R C LFE Ls Rs
Sampling rate : 48.0 kHz
Frame rate : 31.250 FPS (1536 SPF)
Compression mode : Lossy
Stream size : 154 MiB (4%)
Language : English
Service kind : Complete Main
Default : Yes
Forced : No

Text
ID : 3
Format : UTF-8
Codec ID : S_TEXT/UTF8
Codec ID/Info : UTF-8 Plain Text
Duration : 1 h 20 min
Bit rate : 65 b/s
Count of elements : 1164
Stream size : 38.7 KiB (0%)
Language : English
Default : Yes
Forced : No

Readme

Password & My Message

Screenshots