Fast Download Mirrors

Free Guy (2021) • Movie | 2160p.UHD.BluRay.REMUX.HDR.HEVC.Atmos-TRiToN

Free Guy (2021) • Movie
Free Guy 115min | Action, Adventure, Comedy, Fantasy, Sci-Fi | August 13, 2021 (United States) Summary: A bank teller discovers that he's actually an NPC inside a brutal, open world video game.
Countries: United States, CanadaLanguages: English, Japanese, German

A bank teller called Guy realizes he is a background character in an open world video game called Free City that will soon go offline.

Mirrors: 1fichier, Gdrive[GDTOT], GDrive Index
Format: MKV
Credits: TRiToN

Download

General
Unique ID : 93133339907714763122727273676042537010 (0x4610D42D36B4D5F0A989D2AC298A0832)
Complete name : Free.Guy.2021.2160p.UHD.BluRay.REMUX.HDR.HEVC.Atmos-TRiToN.mkv
Format : Matroska
Format version : Version 4
File size : 47.4 GiB
Duration : 1 h 54 min
Overall bit rate mode : Variable
Overall bit rate : 59.0 Mb/s
Movie name : Free Guy (2021)
Encoded date : UTC 2021-09-30 23:36:03
Writing application : mkvmerge v61.0.0 ('So') 64-bit
Writing library : libebml v1.4.2 + libmatroska v1.6.4
IMDB : tt6264654
TMDB : movie/550988

Video
ID : 1
Format : HEVC
Format/Info : High Efficiency Video Coding
Format profile : Main 10@L5.1@High
HDR format : SMPTE ST 2086, HDR10 compatible
Codec ID : V_MPEGH/ISO/HEVC
Duration : 1 h 54 min
Bit rate : 49.9 Mb/s
Width : 3 840 pixels
Height : 2 160 pixels
Display aspect ratio : 16:9
Frame rate mode : Constant
Frame rate : 23.976 (24000/1001) FPS
Color space : YUV
Chroma subsampling : 4:2:0 (Type 2)
Bit depth : 10 bits
Bits/(Pixel*Frame) : 0.251
Stream size : 40.1 GiB (85%)
Title : MPEG-H HEVC Video / 49929 kbps / 2160p / 23.976 fps / 16:9 / Main 10 @ Level 5.1 @ High / 10 bits / HDR10 / BT.2020
Writing library : ATEME Titan File 3.9.6 (4.9.6.2)
Language : English
Default : Yes
Forced : No
Color range : Limited
Color primaries : BT.2020
Transfer characteristics : PQ
Matrix coefficients : BT.2020 non-constant
Mastering display color primaries : Display P3
Mastering display luminance : min: 0.0050 cd/m2, max: 1000 cd/m2

Audio #1
ID : 2
Format : MLP FBA 16-ch
Format/Info : Meridian Lossless Packing FBA with 16-channel presentation
Commercial name : Dolby TrueHD with Dolby Atmos
Codec ID : A_TRUEHD
Duration : 1 h 54 min
Bit rate mode : Variable
Bit rate : 7 912 kb/s
Maximum bit rate : 12.9 Mb/s
Channel(s) : 8 channels
Channel layout : L R C LFE Ls Rs Lb Rb
Sampling rate : 48.0 kHz
Frame rate : 1 200.000 FPS (40 SPF)
Compression mode : Lossless
Stream size : 6.35 GiB (13%)
Title : Dolby TrueHD/Atmos Audio / 7.1 / 48 kHz / 7912 kbps / 24-bit
Language : English
Default : Yes
Forced : No
Number of dynamic objects : 13
Bed channel count : 1 channel
Bed channel configuration : LFE

Audio #2
ID : 3
Format : AC-3
Format/Info : Audio Coding 3
Commercial name : Dolby Digital
Codec ID : A_AC3
Duration : 1 h 54 min
Bit rate mode : Constant
Bit rate : 640 kb/s
Channel(s) : 6 channels
Channel layout : L R C LFE Ls Rs
Sampling rate : 48.0 kHz
Frame rate : 31.250 FPS (1536 SPF)
Compression mode : Lossy
Stream size : 526 MiB (1%)
Title : Compatibility Track / Dolby Digital Audio / 5.1 / 48 kHz / 640 kbps
Language : English
Service kind : Complete Main
Default : No
Forced : No

Text #1
ID : 4
Format : PGS
Codec ID : S_HDMV/PGS
Codec ID/Info : Picture based subtitle format used on BDs/HD-DVDs
Duration : 13 s 597 ms
Bit rate : 64.2 kb/s
Count of elements : 12
Stream size : 107 KiB (0%)
Title : Forced
Language : English
Default : Yes
Forced : Yes

Text #2
ID : 5
Format : PGS
Codec ID : S_HDMV/PGS
Codec ID/Info : Picture based subtitle format used on BDs/HD-DVDs
Duration : 1 h 45 min
Bit rate : 57.7 kb/s
Count of elements : 4270
Stream size : 43.6 MiB (0%)
Title : SDH
Language : English
Default : No
Forced : No

Text #3
ID : 6
Format : PGS
Codec ID : S_HDMV/PGS
Codec ID/Info : Picture based subtitle format used on BDs/HD-DVDs
Duration : 1 h 53 min
Bit rate : 34.1 kb/s
Count of elements : 2300
Stream size : 27.7 MiB (0%)
Language : Danish
Default : No
Forced : No

Text #4
ID : 7
Format : PGS
Codec ID : S_HDMV/PGS
Codec ID/Info : Picture based subtitle format used on BDs/HD-DVDs
Duration : 1 h 53 min
Bit rate : 44.2 kb/s
Count of elements : 3758
Stream size : 36.0 MiB (0%)
Language : Finnish
Default : No
Forced : No

Text #5
ID : 8
Format : PGS
Codec ID : S_HDMV/PGS
Codec ID/Info : Picture based subtitle format used on BDs/HD-DVDs
Duration : 1 h 53 min
Bit rate : 33.8 kb/s
Count of elements : 3396
Stream size : 27.5 MiB (0%)
Language : French
Default : No
Forced : No

Text #6
ID : 9
Format : PGS
Codec ID : S_HDMV/PGS
Codec ID/Info : Picture based subtitle format used on BDs/HD-DVDs
Duration : 1 h 53 min
Bit rate : 47.2 kb/s
Count of elements : 3796
Stream size : 38.5 MiB (0%)
Title : Canadian
Language : French
Default : No
Forced : No

Text #7
ID : 10
Format : PGS
Codec ID : S_HDMV/PGS
Codec ID/Info : Picture based subtitle format used on BDs/HD-DVDs
Duration : 1 h 53 min
Bit rate : 39.0 kb/s
Count of elements : 3696
Stream size : 31.8 MiB (0%)
Language : German
Default : No
Forced : No

Text #8
ID : 11
Format : PGS
Codec ID : S_HDMV/PGS
Codec ID/Info : Picture based subtitle format used on BDs/HD-DVDs
Duration : 1 h 53 min
Bit rate : 37.7 kb/s
Count of elements : 3732
Stream size : 30.7 MiB (0%)
Language : Italian
Default : No
Forced : No

Text #9
ID : 12
Format : PGS
Codec ID : S_HDMV/PGS
Codec ID/Info : Picture based subtitle format used on BDs/HD-DVDs
Duration : 1 h 53 min
Bit rate : 30.6 kb/s
Count of elements : 3605
Stream size : 25.0 MiB (0%)
Language : Japanese
Default : No
Forced : No

Text #10
ID : 13
Format : PGS
Codec ID : S_HDMV/PGS
Codec ID/Info : Picture based subtitle format used on BDs/HD-DVDs
Duration : 1 h 53 min
Bit rate : 38.6 kb/s
Count of elements : 3780
Stream size : 31.5 MiB (0%)
Language : Norwegian
Default : No
Forced : No

Text #11
ID : 14
Format : PGS
Codec ID : S_HDMV/PGS
Codec ID/Info : Picture based subtitle format used on BDs/HD-DVDs
Duration : 1 h 45 min
Bit rate : 50.0 kb/s
Count of elements : 3780
Stream size : 37.7 MiB (0%)
Language : Spanish
Default : No
Forced : No

Text #12
ID : 15
Format : PGS
Codec ID : S_HDMV/PGS
Codec ID/Info : Picture based subtitle format used on BDs/HD-DVDs
Duration : 1 h 53 min
Bit rate : 30.8 kb/s
Count of elements : 2110
Stream size : 25.1 MiB (0%)
Language : Swedish
Default : No
Forced : No

Menu
00:00:00.000 : Chapter 01
00:05:09.100 : Chapter 02
00:08:43.815 : Chapter 03
00:14:29.702 : Chapter 04
00:21:25.701 : Chapter 05
00:24:06.028 : Chapter 06
00:28:25.245 : Chapter 07
00:34:21.810 : Chapter 08
00:39:40.837 : Chapter 09
00:44:10.731 : Chapter 10
00:48:47.967 : Chapter 11
00:52:47.748 : Chapter 12
00:56:18.375 : Chapter 13
01:00:17.739 : Chapter 14
01:04:41.920 : Chapter 15
01:09:13.816 : Chapter 16
01:15:13.300 : Chapter 17
01:19:14.083 : Chapter 18
01:23:59.326 : Chapter 19
01:28:06.406 : Chapter 20
01:33:07.415 : Chapter 21
01:39:19.954 : Chapter 22
01:44:22.506 : Chapter 23
01:46:13.993 : Chapter 24

FREE GUY (2021) • MOVIE | 2160P.UHD.BLURAY.X265-SURCODE
https://ambassadorddl.site/free-guy-2021-movie-2160p-uhd-bluray-x265-surcode/
FREE GUY (2021) • MOVIE | BLURAY.REMUX – FRAMESTOR + BDRip + HDRip
https://ambassadorddl.site/free-guy-2021-movie-bluray-remux-framestor/
FREE GUY (2021) • MOVIE | 2160P.WEB-DL.X265.10BIT.DTS-HD.MA.7.1-NOGRP | SDR+HDR
https://ambassadorddl.site/free-guy-2021-movie-2160p-web-dl-x265-10bit-dts-hd-ma-7-1-nogrp-sdr-hdr/
FREE GUY (2021) • MOVIE | 1080P-BLURAY-X265-TIGOLE-QXR
https://ambassadorddl.site/free-guy-2021-movie-1080p-bluray-x265-tigole-qxr/
Readme/Password

Password & My Message