Fast Download Mirrors

Free Guy (2021) • Movie | 2160p.UHD.BluRay.x265-SURCODE

Free Guy (2021) • Movie
Free Guy 115min | Action, Adventure, Comedy, Fantasy, Sci-Fi | August 13, 2021 (United States) Summary: A bank teller discovers that he's actually an NPC inside a brutal, open world video game.
Countries: United States, CanadaLanguages: English, Japanese, German

A bank teller called Guy realizes he is a background character in an open world video game called Free City that will soon go offline.

Mirrors: 1fichier, MultiUp, Gdrive[GDTOT, Sharer], GDrive Index
Format: MKV
Credits: SURCODE

Download

General
Unique ID                                : 292914340931034059472336960703990611747 (0xDC5D400239A323D79D170FF0A1E03F23)
Complete name                            : Free.Guy.2021.2160p.UHD.BluRay.x265-SURCODE.mkv
Format                                   : Matroska
Format version                           : Version 4
File size                                : 19.4 GiB
Duration                                 : 1 h 54 min
Overall bit rate mode                    : Variable
Overall bit rate                         : 24.2 Mb/s
Movie name                               : Free Guy
Encoded date                             : UTC 2021-09-30 03:16:08
Writing application                      : mkvmerge v31.0.0 ('Dolores In A Shoestand') 64-bit
Writing library                          : libebml v1.3.6 + libmatroska v1.4.9

Video
ID                                       : 1
Format                                   : HEVC
Format/Info                              : High Efficiency Video Coding
Format profile                           : Main 10@L5.1@High
HDR format                               : SMPTE ST 2086, HDR10 compatible
Codec ID                                 : V_MPEGH/ISO/HEVC
Duration                                 : 1 h 54 min
Bit rate                                 : 15.3 Mb/s
Width                                    : 3 840 pixels
Height                                   : 1 608 pixels
Display aspect ratio                     : 2.40:1
Frame rate mode                          : Constant
Frame rate                               : 23.976 (24000/1001) FPS
Color space                              : YUV
Chroma subsampling                       : 4:2:0 (Type 2)
Bit depth                                : 10 bits
Bits/(Pixel*Frame)                       : 0.103
Stream size                              : 12.3 GiB (63%)
Writing library                          : x265 3.5+13-4c6880de4:[Windows][MSVC 1929][64 bit] 10bit
Encoding settings                        : cpuid=1111039 / frame-threads=5 / numa-pools=32 / wpp / no-pmode / no-pme / no-psnr / no-ssim / log-level=2 / input-csp=1 / input-res=3840x1608 / interlace=0 / total-frames=165401 / level-idc=51 / high-tier=1 / uhd-bd=0 / ref=4 / no-allow-non-conformance / repeat-headers / annexb / aud / no-eob / no-eos / hrd / info / hash=0 / no-temporal-layers / no-open-gop / min-keyint=23 / keyint=250 / gop-lookahead=0 / bframes=4 / b-adapt=2 / b-pyramid / bframe-bias=0 / rc-lookahead=25 / lookahead-slices=4 / scenecut=40 / no-hist-scenecut / radl=0 / no-splice / no-intra-refresh / ctu=64 / min-cu-size=8 / rect / no-amp / max-tu-size=32 / tu-inter-depth=1 / tu-intra-depth=1 / limit-tu=0 / rdoq-level=2 / dynamic-rd=0.00 / no-ssim-rd / signhide / no-tskip / nr-intra=0 / nr-inter=0 / no-constrained-intra / no-strong-intra-smoothing / max-merge=3 / limit-refs=3 / limit-modes / me=3 / subme=3 / merange=57 / temporal-mvp / no-frame-dup / no-hme / weightp / no-weightb / no-analyze-src-pics / deblock=-3:-3 / no-sao / no-sao-non-deblock / rd=4 / selective-sao=0 / no-early-skip / rskip / no-fast-intra / no-tskip-fast / no-cu-lossless / no-b-intra / no-splitrd-skip / rdpenalty=0 / psy-rd=2.00 / psy-rdoq=1.00 / no-rd-refine / no-lossless / cbqpoffs=0 / crqpoffs=0 / rc=crf / crf=12.0 / qcomp=0.60 / qpstep=4 / stats-write=0 / stats-read=0 / vbv-maxrate=160000 / vbv-bufsize=160000 / vbv-init=0.9 / min-vbv-fullness=50.0 / max-vbv-fullness=80.0 / crf-max=0.0 / crf-min=0.0 / ipratio=1.40 / pbratio=1.30 / aq-mode=2 / aq-strength=1.00 / cutree / zone-count=0 / no-strict-cbr / qg-size=32 / no-rc-grain / qpmax=69 / qpmin=0 / no-const-vbv / sar=1 / overscan=0 / videoformat=5 / range=0 / colorprim=9 / transfer=16 / colormatrix=9 / chromaloc=1 / chromaloc-top=2 / chromaloc-bottom=2 / display-window=0 / master-display=G(13250,34500)B(7500,3000)R(34000,16000)WP(15635,16450)L(10000000,50) / cll=0,0 / min-luma=0 / max-luma=1023 / log2-max-poc-lsb=8 / vui-timing-info / vui-hrd-info / slices=1 / no-opt-qp-pps / no-opt-ref-list-length-pps / no-multi-pass-opt-rps / scenecut-bias=0.05 / hist-threshold=0.03 / no-opt-cu-delta-qp / no-aq-motion / hdr10 / hdr10-opt / no-dhdr10-opt / no-idr-recovery-sei / analysis-reuse-level=0 / analysis-save-reuse-level=0 / analysis-load-reuse-level=0 / scale-factor=0 / refine-intra=0 / refine-inter=0 / refine-mv=1 / refine-ctu-distortion=0 / no-limit-sao / ctu-info=0 / no-lowpass-dct / refine-analysis-type=0 / copy-pic=1 / max-ausize-factor=1.0 / no-dynamic-refine / no-single-sei / no-hevc-aq / no-svt / no-field / qp-adaptation-range=1.00 / scenecut-aware-qp=0conformance-window-offsets / right=0 / bottom=0 / decoder-max-rate=0 / no-vbv-live-multi-pass
Default                                  : Yes
Forced                                   : No
Color range                              : Limited
Color primaries                          : BT.2020
Transfer characteristics                 : PQ
Matrix coefficients                      : BT.2020 non-constant
Mastering display color primaries        : Display P3
Mastering display luminance              : min: 0.0050 cd/m2, max: 1000 cd/m2

Audio #1
ID                                       : 2
Format                                   : MLP FBA 16-ch
Format/Info                              : Meridian Lossless Packing FBA with 16-channel presentation
Commercial name                          : Dolby TrueHD with Dolby Atmos
Codec ID                                 : A_TRUEHD
Duration                                 : 1 h 54 min
Bit rate mode                            : Variable
Bit rate                                 : 7 912 kb/s
Maximum bit rate                         : 12.9 Mb/s
Channel(s)                               : 8 channels
Channel layout                           : L R C LFE Ls Rs Lb Rb
Sampling rate                            : 48.0 kHz
Frame rate                               : 1 200.000 FPS (40 SPF)
Compression mode                         : Lossless
Stream size                              : 6.35 GiB (33%)
Title                                    : Surround 7.1
Language                                 : English
Default                                  : Yes
Forced                                   : No
Number of dynamic objects                : 13
Bed channel count                        : 1 channel
Bed channel configuration                : LFE

Audio #2
ID                                       : 3
Format                                   : AC-3
Format/Info                              : Audio Coding 3
Commercial name                          : Dolby Digital
Codec ID                                 : A_AC3
Duration                                 : 1 h 54 min
Bit rate mode                            : Constant
Bit rate                                 : 640 kb/s
Channel(s)                               : 6 channels
Channel layout                           : L R C LFE Ls Rs
Sampling rate                            : 48.0 kHz
Frame rate                               : 31.250 FPS (1536 SPF)
Compression mode                         : Lossy
Stream size                              : 526 MiB (3%)
Title                                    : Surround 5.1
Language                                 : English
Service kind                             : Complete Main
Default                                  : No
Forced                                   : No

Audio #3
ID                                       : 4
Format                                   : AAC LC
Format/Info                              : Advanced Audio Codec Low Complexity
Codec ID                                 : A_AAC-2
Duration                                 : 1 h 54 min
Bit rate                                 : 119 kb/s
Channel(s)                               : 2 channels
Channel layout                           : L R
Sampling rate                            : 48.0 kHz
Frame rate                               : 46.875 FPS (1024 SPF)
Compression mode                         : Lossy
Delay relative to video                  : 9 ms
Stream size                              : 97.9 MiB (0%)
Title                                    : commentary
Language                                 : English
Default                                  : No
Forced                                   : No

Text #1
ID                                       : 5
Format                                   : UTF-8
Codec ID                                 : S_TEXT/UTF8
Codec ID/Info                            : UTF-8 Plain Text
Duration                                 : 13 s 597 ms
Bit rate                                 : 100 b/s
Count of elements                        : 6
Stream size                              : 170 Bytes (0%)
Title                                    : forced
Language                                 : English
Default                                  : Yes
Forced                                   : Yes

Text #2
ID                                       : 6
Format                                   : PGS
Muxing mode                              : zlib
Codec ID                                 : S_HDMV/PGS
Codec ID/Info                            : Picture based subtitle format used on BDs/HD-DVDs
Duration                                 : 1 h 45 min
Bit rate                                 : 57.7 kb/s
Count of elements                        : 4270
Stream size                              : 43.6 MiB (0%)
Language                                 : English
Default                                  : No
Forced                                   : No

Text #3
ID                                       : 7
Format                                   : PGS
Muxing mode                              : zlib
Codec ID                                 : S_HDMV/PGS
Codec ID/Info                            : Picture based subtitle format used on BDs/HD-DVDs
Duration                                 : 1 h 53 min
Bit rate                                 : 33.8 kb/s
Count of elements                        : 3396
Stream size                              : 27.5 MiB (0%)
Language                                 : French
Default                                  : No
Forced                                   : No

Text #4
ID                                       : 8
Format                                   : PGS
Muxing mode                              : zlib
Codec ID                                 : S_HDMV/PGS
Codec ID/Info                            : Picture based subtitle format used on BDs/HD-DVDs
Duration                                 : 1 h 53 min
Bit rate                                 : 47.2 kb/s
Count of elements                        : 3796
Stream size                              : 38.5 MiB (0%)
Language                                 : French
Default                                  : No
Forced                                   : No

Text #5
ID                                       : 9
Format                                   : PGS
Muxing mode                              : zlib
Codec ID                                 : S_HDMV/PGS
Codec ID/Info                            : Picture based subtitle format used on BDs/HD-DVDs
Duration                                 : 1 h 45 min
Bit rate                                 : 50.0 kb/s
Count of elements                        : 3780
Stream size                              : 37.7 MiB (0%)
Language                                 : Spanish
Default                                  : No
Forced                                   : No

Text #6
ID                                       : 10
Format                                   : PGS
Muxing mode                              : zlib
Codec ID                                 : S_HDMV/PGS
Codec ID/Info                            : Picture based subtitle format used on BDs/HD-DVDs
Duration                                 : 1 h 53 min
Bit rate                                 : 39.0 kb/s
Count of elements                        : 3696
Stream size                              : 31.8 MiB (0%)
Language                                 : German
Default                                  : No
Forced                                   : No

Text #7
ID                                       : 11
Format                                   : PGS
Muxing mode                              : zlib
Codec ID                                 : S_HDMV/PGS
Codec ID/Info                            : Picture based subtitle format used on BDs/HD-DVDs
Duration                                 : 1 h 53 min
Bit rate                                 : 37.7 kb/s
Count of elements                        : 3732
Stream size                              : 30.7 MiB (0%)
Language                                 : Italian
Default                                  : No
Forced                                   : No

Text #8
ID                                       : 12
Format                                   : PGS
Muxing mode                              : zlib
Codec ID                                 : S_HDMV/PGS
Codec ID/Info                            : Picture based subtitle format used on BDs/HD-DVDs
Duration                                 : 1 h 53 min
Bit rate                                 : 30.6 kb/s
Count of elements                        : 3605
Stream size                              : 25.0 MiB (0%)
Language                                 : Japanese
Default                                  : No
Forced                                   : No

Text #9
ID                                       : 13
Format                                   : PGS
Muxing mode                              : zlib
Codec ID                                 : S_HDMV/PGS
Codec ID/Info                            : Picture based subtitle format used on BDs/HD-DVDs
Duration                                 : 1 h 53 min
Bit rate                                 : 34.1 kb/s
Count of elements                        : 2300
Stream size                              : 27.7 MiB (0%)
Language                                 : Danish
Default                                  : No
Forced                                   : No

Text #10
ID                                       : 14
Format                                   : PGS
Muxing mode                              : zlib
Codec ID                                 : S_HDMV/PGS
Codec ID/Info                            : Picture based subtitle format used on BDs/HD-DVDs
Duration                                 : 1 h 53 min
Bit rate                                 : 44.2 kb/s
Count of elements                        : 3758
Stream size                              : 36.0 MiB (0%)
Language                                 : Finnish
Default                                  : No
Forced                                   : No

Text #11
ID                                       : 15
Format                                   : PGS
Muxing mode                              : zlib
Codec ID                                 : S_HDMV/PGS
Codec ID/Info                            : Picture based subtitle format used on BDs/HD-DVDs
Duration                                 : 1 h 53 min
Bit rate                                 : 38.6 kb/s
Count of elements                        : 3780
Stream size                              : 31.5 MiB (0%)
Language                                 : Norwegian
Default                                  : No
Forced                                   : No

Text #12
ID                                       : 16
Format                                   : PGS
Muxing mode                              : zlib
Codec ID                                 : S_HDMV/PGS
Codec ID/Info                            : Picture based subtitle format used on BDs/HD-DVDs
Duration                                 : 1 h 53 min
Bit rate                                 : 30.8 kb/s
Count of elements                        : 2110
Stream size                              : 25.1 MiB (0%)
Language                                 : Swedish
Default                                  : No
Forced                                   : No

Text #13
ID                                       : 17
Format                                   : PGS
Muxing mode                              : zlib
Codec ID                                 : S_HDMV/PGS
Codec ID/Info                            : Picture based subtitle format used on BDs/HD-DVDs
Duration                                 : 13 s 618 ms
Bit rate                                 : 64.1 kb/s
Count of elements                        : 12
Stream size                              : 107 KiB (0%)
Title                                    : forced
Language                                 : English
Default                                  : No
Forced                                   : No

Text #14
ID                                       : 18
Format                                   : PGS
Muxing mode                              : zlib
Codec ID                                 : S_HDMV/PGS
Codec ID/Info                            : Picture based subtitle format used on BDs/HD-DVDs
Duration                                 : 13 s 618 ms
Bit rate                                 : 57.4 kb/s
Count of elements                        : 12
Stream size                              : 95.4 KiB (0%)
Title                                    : forced
Language                                 : French
Default                                  : No
Forced                                   : No

Text #15
ID                                       : 19
Format                                   : PGS
Muxing mode                              : zlib
Codec ID                                 : S_HDMV/PGS
Codec ID/Info                            : Picture based subtitle format used on BDs/HD-DVDs
Duration                                 : 1 h 47 min
Bit rate                                 : 414 b/s
Count of elements                        : 52
Stream size                              : 325 KiB (0%)
Title                                    : forced
Language                                 : French
Default                                  : No
Forced                                   : No

Text #16
ID                                       : 20
Format                                   : PGS
Muxing mode                              : zlib
Codec ID                                 : S_HDMV/PGS
Codec ID/Info                            : Picture based subtitle format used on BDs/HD-DVDs
Duration                                 : 1 h 27 min
Bit rate                                 : 912 b/s
Count of elements                        : 62
Stream size                              : 583 KiB (0%)
Title                                    : forced
Language                                 : Spanish
Default                                  : No
Forced                                   : No

Text #17
ID                                       : 21
Format                                   : PGS
Muxing mode                              : zlib
Codec ID                                 : S_HDMV/PGS
Codec ID/Info                            : Picture based subtitle format used on BDs/HD-DVDs
Duration                                 : 13 min 14 s
Bit rate                                 : 1 652 b/s
Count of elements                        : 16
Stream size                              : 160 KiB (0%)
Title                                    : forced
Language                                 : German
Default                                  : No
Forced                                   : No

Text #18
ID                                       : 22
Format                                   : PGS
Muxing mode                              : zlib
Codec ID                                 : S_HDMV/PGS
Codec ID/Info                            : Picture based subtitle format used on BDs/HD-DVDs
Duration                                 : 30 min 27 s
Bit rate                                 : 1 224 b/s
Count of elements                        : 22
Stream size                              : 273 KiB (0%)
Title                                    : forced
Language                                 : Italian
Default                                  : No
Forced                                   : No

Text #19
ID                                       : 23
Format                                   : PGS
Muxing mode                              : zlib
Codec ID                                 : S_HDMV/PGS
Codec ID/Info                            : Picture based subtitle format used on BDs/HD-DVDs
Duration                                 : 1 h 39 min
Bit rate                                 : 589 b/s
Count of elements                        : 64
Stream size                              : 430 KiB (0%)
Title                                    : forced
Language                                 : Japanese
Default                                  : No
Forced                                   : No

Menu
00:00:00.000                             : en:Chapter 01
00:05:09.100                             : en:Chapter 02
00:08:43.523                             : en:Chapter 03
00:14:29.326                             : en:Chapter 04
00:21:25.701                             : en:Chapter 05
00:24:06.027                             : en:Chapter 06
00:28:24.911                             : en:Chapter 07
00:34:21.809                             : en:Chapter 08
00:39:40.461                             : en:Chapter 09
00:44:10.522                             : en:Chapter 10
00:48:47.758                             : en:Chapter 11
00:52:47.664                             : en:Chapter 12
00:56:18.249                             : en:Chapter 13
01:00:17.739                             : en:Chapter 14
01:04:41.752                             : en:Chapter 15
01:09:13.607                             : en:Chapter 16
01:15:13.217                             : en:Chapter 17
01:19:14.082                             : en:Chapter 18
01:23:59.325                             : en:Chapter 19
01:28:06.197                             : en:Chapter 20
01:33:07.415                             : en:Chapter 21
01:39:19.954                             : en:Chapter 22
01:44:22.506                             : en:Chapter 23
01:46:13.617                             : en:Chapter 24

ÜÜÜÜÜÜÜÜÜÜÜÜÜÜÜÜÜÜÜÜÜÜÜÜÜÜÜÜÜÜÜÜÜÜÜÜÜÜÜÜÜÜÜÜÜÜÜÜÜÜÜÜÜÜÜÜÜÜÜÜÜÜÜÜÜÜÜÜÜÜÜÜÜÜÜÜÜÜ
 ±²²²²²²²²²²²²±²²²²²²²²²²²²²²²²²²²²²²²²²²²²²²²²²²²²²²²²±²²²²²²²²²²²²²²²²²²²²²²²
  °±±±±±±±±±±± °±±±±±±±°±±±±±±±±±±±±±±±±±±±±±±±±±±±±±±±°°±±±±±±±±±±±±±±±±±°°±±±
   °°° °°°°°°   °°°°°°   ° °°°°°°°°°°° °°°°°°°°°°°° °°    ° °°°°°°°°°°°°°   °°°
 Ü         °  Ü        Ü                                Ü            °    Ü
  ßßßßßßßßßßÞÜ ßßßßßß Ü ßßßß ßßßßßßßßßßßßßßßÜÜßßßßßßßß Ü°ßßßßßßßßßßÛÛß Ü ßßßßßß
 ßÛÛÛÛÛÛÛÛÜ  ÛÛÜ °  ÛÛÜßÛÛÛÛÜÛÛÛÜ ßÛÛÛÛÛÛÛÛÜ ß ÜÛÛÛÛÛÛÜ ßÛÛÛÛÛÛÛÜ ßß ÜÛÛÛÛÛÛÛÛß
   ²ßßßßßÜ²Û Û²Û °  Û²Û  ²ßßßßßÛ²Û  ²ßßßßßÜ²Û Û²ÜßßßßÜ²Û  ²ßßßßÛÛ²Ü ß²ßßßßß²ß °
  ²°² °° Û²ß ²±² °  ²±² ²°² °  Û²Û ²°² °  Û²Û ²±² °° ²±² ²°² °° Û²Û ²°² °ÜÛÝ°°
  Û±ÛÜ   ß   Û±Û °  Û±Û Û±Û °  Û²Û Û±Û ° ÞÛß° Û±Û °  Û±Û Û±Û °  Û²Û Û±ÛÜÛ²Û °
   ß²Û²²²ÜÜ  Û²Û °  Û²Û Û²Û ÜÜÛ²Ûß Û²Û  Üß°°  Û²Û ÜÛ Û²Û Û²Û °  Û²Û Û²ßßß²Û °
  °  ßßßÛÛ²Û Û²Û °  Û²Û ÛßÜÛÛÛßÛÜ  Û²Û Û °    Û²Û Ûß Û²Û Û²Û °  Û²Û Û²Û °Ûß°
   ÜÛ °  Û²Û Û²Û °  Û²Û Û²ÛÛß° Û²Û Û²Û ²  ÛÜ  Û²Û °  Û²Û Û²Û °  Û²Û Û²Û ß ° ÜÛ°
  Û²Û °  Û²Û Û²Û ° ÜÛ²Û Û²Û °  Û²Û Û²Û  ß Û²Û Û²Û °  Û²Û Û²ÛÜ ° Û²Û Û²Û °  Û²Û
 ÞÛ²ÝÜÜÜÜß²Û ßÛ²ÛÜÜÜÜßÛ Û²Û °  Û²Û Û²ßÜÜÜÜß²Û Û²ßÜÜÜÜß²Û ÛÛßÜÜÜÜßÛÛ ÛÛÝÜÜÜÜÞ²ÛÝ
 ß ßÛÛÛÛÛÛß °° ßÛÛßßÛÛÜ ÛÛß °  Û²Û °ßÛÛÛÛÛÛß ° ßÛÛÛÛÛÛß ÞÛÜÛÛßßÛÛß  ÛÛÛÛßßÛÛß ß
þmxÜÜÜÜÜÜÜÜÜ ÜÜÜÜÜÜÜÜÜÜ ß ÜÜÜÜÜ ßÛÝ°ÜÜÜÜÜÜÜÜÜÜÜÜÜÜÜÜÜÜÜ ß°ÜÜÜÜÜÜÜÜßÜÜÜÜÜÜÜÜÜÜÜ
  ß         ß    ßßßßß      ß       °  ß                  ß   °               ß
  °°°°°°°°°°°° °°°°°°°°   °°°°°°°°°°°°°°°°°°°°°°°°°°   °°°°°°°°°°°°°°°°°°°°
 °°±±±±±±±±±±±±±±±±±±±±±°°±±±±±±±±±±±±±±±±±±±±±±±±±±°°±±±±±±±±±±±±±±±±±±±±±±°°°
 ±²²²²²²²²²²²²²²²²²²²²²²²±²²²²²²²²²²²²²²²²²²²²²²²²²±²²²²²²²²²²²²²²²²²²²²²²²²²±±
 ßßßßßßßßßßßßßßßßßßßßßßßßßßßßßßßßßßßßßßßßßßßßßßßßßßßßßßßßßßßßßßßßßßßßßßßßß
                                Free Guy (2021)
 Ü ÜÜÜÜÜ°ÜÜÜÜÜÜÜÜ ÜÜÜÜÜÜÜÜÜÜÜÜÜÜÜÜÜÜÜÜÜÜÜÜÜÜÜÜÜÜÜÜÜÜÜÜÜÜÜÜÜÜÜÜÜÜÜÜÜÜÜÜÜÜÜÜÜÜÜ Ü
                 Û
  ViDE0 ......   ²   3840 x 1608 (crf12 @ 15,3 mbps)
  ViDE0 $0URCE   Ü   3840 x 2160 (@ 49,9 mbps)
                 Ü
 Ü ÜÜÜÜÜÜÜÜÜ Ü ÜÜßÜÜ Ü ÜÜÜÜÜÜÜÜÜÜÜÜÜÜÜÜÜÜÜÜÜÜÜÜÜÜÜÜÜÜÜ°ÜÜÜÜÜÜÜÜÜÜÜÜÜÜÜÜÜÜÜÜÜÜ Ü
                 ²
  AUDi0 ......   Ü   English TrueHD 7.1
  $UBTiTLE$ ..   Ü   en, fr, es, it, ge, ja, da, fi, no, sv
  iMDB .......   ²   https://www.imdb.com/title/tt6264654/
               ßÜßÜß
 ß  ß  ß  ßß ßßßÜßÜßßßß ßßßß ßßßß ßßßß ßßßß ßßßß ßßßß ßßßß ßßßß ßßßß ßßßß ßßß ß
 ß ßßßßÜ   Üß °ß ² ß °°Üß°°°°°°Üß°°°°°°Üß°°°°°°Üß°°°°°°Üß°°°°°°Üß°°°°°°Üß°°°°°°
 N0TES  ÛÜÛßÛÜÛßÜßÜßÛÜÛßÛÜÛßÛÜÛßÛÜÛßÛÜÛßÛÜÛßÛÜÛßÛÜÛßÛÜÛßÛÜÛßÛÜÛßÛÜÛßÛÜÛßÛÜÛßÛÜÛ
 Ü ÜÜÜÜß ÜÜÜÜÜÜÜ ß ÜÜÜÜÜÜÜÜÜÜÜÜÜÜÜÜÜÜÜÜÜÜÜÜÜÜÜÜ°ÜÜÜÜÜÜÜÜÜÜÜÜÜÜÜÜÜÜÜÜÜÜÜÜÜÜÜÜÜ Ü

                     THX!

 ßßßßßßßßßßßßßßßßßßßßßßßßßßß°ßßßßßßßßßßßßßßßßßßßßßßßßßßßßßßßßßßßßßßßßßßßß°ßßßßß
 ÛßÛÜÛßÛÜÛßÛÜÛßÛÜÛßÛÜÛßÛÜÛßÛÜÛßÛÜÛßÛÜÛßÛÜÛßÛÜÛßÛÜÛßÛÜÛßÛÜÛßÛÜÛßÛÜÛßÛÜÛßÛÜÛßÛÜÛß
 °°Üß°°°°°°Üß°°°°°°Üß°°°°°°Üß°°°°°°Üß°°°°°°Üß°°°°°°Üß°°°°°°Üß°°°°°°Üß°°°°°°Üß°°
 ±² ±±±±±±² ±±±±±±² ±±±±±±² ±±±±±±² ±±±±±±² ±±±±±±² ±±±±±±² ±±±±±±² ±±±±±±² ±±±
 ² ±²²²²²² ±²²²²²² ±²²²²²² ±²²²²²² ±²²²²²² ±²²²²²² ±²²²²²² ±²²²²²² ±²²²²²² ±²²²
 ß ßßßßßß  ßßßßßß  ßßßßßß  ßßßßßß  ßßßßßß  ßßßßßß  ßßßßßß  ßßßßßß  ßßßßßß  ßßßß
 ßßßßßßßßßßßßßßßßßßßßßßßßßßßßßßßß°ßßßßßßßßßßßßßßßßßßßßßßßßßßßßßßßßßßßßßßßßßßßßß

FREE GUY (2021) • MOVIE | BLURAY.REMUX – FRAMESTOR + BDRip + HDRip
https://ambassadorddl.site/free-guy-2021-movie-bluray-remux-framestor/
FREE GUY (2021) • MOVIE | 2160P.WEB-DL.X265.10BIT.DTS-HD.MA.7.1-NOGRP | SDR+HDR
https://ambassadorddl.site/free-guy-2021-movie-2160p-web-dl-x265-10bit-dts-hd-ma-7-1-nogrp-sdr-hdr/
FREE GUY (2021) • MOVIE | 1080P-BLURAY-X265-TIGOLE-QXR
https://ambassadorddl.site/free-guy-2021-movie-1080p-bluray-x265-tigole-qxr/
Readme/Password

Password & My Message