Fast Download Mirrors

Free Guy (2021) • Movie | 2160p.WEB-DL.x265.10bit.DTS-HD.MA.7.1-NOGRP | SDR+HDR

Free Guy (2021) • Movie
Free Guy 115min | Action, Adventure, Comedy, Fantasy, Sci-Fi | August 13, 2021 (United States) Summary: A bank teller discovers that he's actually an NPC inside a brutal, open world video game.
Countries: United States, CanadaLanguages: English, Japanese, German

A bank teller called Guy realizes he is a background character in an open world video game called Free City that will soon go offline.

Mirrors: 1fichier, MultiUp, Gdrive[GDTOT, Sharer],
Format: MKV
Credits: -

Download

Video
ID : 1
Format : HEVC
Format/Info : High Efficiency Video Coding
Format profile : Main 10@L5@High
Codec ID : V_MPEGH/ISO/HEVC
Duration : 1 h 54 min
Bit rate : 11.8 Mb/s
Width : 3 840 pixels
Height : 1 606 pixels
Display aspect ratio : 2.40:1
Frame rate mode : Constant
Frame rate : 23.976 FPS
Color space : YUV
Chroma subsampling : 4:2:0
Bit depth : 10 bits
Bits/(Pixel*Frame) : 0.080
Stream size : 9.50 GiB (67%)
Default : Yes
Forced : No
Color range : Limited
Color primaries : BT.709
Transfer characteristics : BT.709
Matrix coefficients : BT.709

Audio #1
ID : 2
Format : DTS ES XLL
Format/Info : Digital Theater Systems
Commercial name : DTS-HD Master Audio
Codec ID : A_DTS
Duration : 1 h 54 min
Bit rate mode : Variable
Bit rate : 5 071 kb/s
Channel(s) : 8 channels
Channel layout : C L R Ls Rs LFE Lb Rb
Sampling rate : 48.0 kHz
Frame rate : 93.750 FPS (512 SPF)
Bit depth : 24 bits
Compression mode : Lossless
Delay relative to video : 3 ms
Stream size : 4.07 GiB (29%)
Title : DTS-HD MA 7.1
Language : English
Default : Yes
Forced : No

Audio #2
ID : 3
Format : E-AC-3 JOC
Format/Info : Enhanced AC-3 with Joint Object Coding
Commercial name : Dolby Digital Plus with Dolby Atmos
Codec ID : A_EAC3
Duration : 1 h 54 min
Bit rate mode : Constant
Bit rate : 768 kb/s
Channel(s) : 6 channels
Channel layout : L R C LFE Ls Rs
Sampling rate : 48.0 kHz
Frame rate : 31.250 FPS (1536 SPF)
Compression mode : Lossy
Stream size : 631 MiB (4%)
Title : English
Language : English
Service kind : Complete Main
Default : No
Forced : No
Complexity index : 16
Number of dynamic objects : 15
Bed channel count : 1 channel
Bed channel configuration : LFE

Text #1
ID : 4
Format : UTF-8
Codec ID : S_TEXT/UTF8
Codec ID/Info : UTF-8 Plain Text
Duration : 13 s 597 ms
Bit rate : 98 b/s
Count of elements : 6
Stream size : 168 Bytes (0%)
Title : FORCED
Language : English
Default : No
Forced : Yes

Text #2
ID : 5
Format : UTF-8
Codec ID : S_TEXT/UTF8
Codec ID/Info : UTF-8 Plain Text
Duration : 1 h 45 min
Bit rate : 80 b/s
Count of elements : 1902
Stream size : 62.4 KiB (0%)
Language : English
Default : No
Forced : No

Text #3
ID : 6
Format : UTF-8
Codec ID : S_TEXT/UTF8
Codec ID/Info : UTF-8 Plain Text
Duration : 1 h 45 min
Bit rate : 90 b/s
Count of elements : 2135
Stream size : 70.0 KiB (0%)
Title : SDH
Language : English
Default : No
Forced : No

Text #4
ID : 7
Format : PGS
Muxing mode : zlib
Codec ID : S_HDMV/PGS
Codec ID/Info : Picture based subtitle format used on BDs/HD-DVDs
Duration : 1 h 45 min
Bit rate : 58.5 kb/s
Count of elements : 4270
Stream size : 44.2 MiB (0%)
Title : SDH
Language : English
Default : No
Forced : No

Text #5
ID : 8
Format : PGS
Muxing mode : zlib
Codec ID : S_HDMV/PGS
Codec ID/Info : Picture based subtitle format used on BDs/HD-DVDs
Duration : 1 h 53 min
Bit rate : 34.6 kb/s
Count of elements : 2300
Stream size : 28.2 MiB (0%)
Language : Danish
Default : No
Forced : No

Text #6
ID : 9
Format : PGS
Muxing mode : zlib
Codec ID : S_HDMV/PGS
Codec ID/Info : Picture based subtitle format used on BDs/HD-DVDs
Duration : 1 h 53 min
Bit rate : 34.1 kb/s
Count of elements : 2744
Stream size : 27.8 MiB (0%)
Language : Dutch
Default : No
Forced : No

Text #7
ID : 10
Format : PGS
Muxing mode : zlib
Codec ID : S_HDMV/PGS
Codec ID/Info : Picture based subtitle format used on BDs/HD-DVDs
Duration : 1 h 53 min
Bit rate : 44.4 kb/s
Count of elements : 3758
Stream size : 36.2 MiB (0%)
Language : Finnish
Default : No
Forced : No

Text #8
ID : 11
Format : PGS
Muxing mode : zlib
Codec ID : S_HDMV/PGS
Codec ID/Info : Picture based subtitle format used on BDs/HD-DVDs
Duration : 1 h 53 min
Bit rate : 33.7 kb/s
Count of elements : 3396
Stream size : 27.5 MiB (0%)
Language : French
Default : No
Forced : No

Text #9
ID : 12
Format : PGS
Muxing mode : zlib
Codec ID : S_HDMV/PGS
Codec ID/Info : Picture based subtitle format used on BDs/HD-DVDs
Duration : 1 h 53 min
Bit rate : 39.1 kb/s
Count of elements : 3696
Stream size : 31.9 MiB (0%)
Language : German
Default : No
Forced : No

Text #10
ID : 13
Format : PGS
Muxing mode : zlib
Codec ID : S_HDMV/PGS
Codec ID/Info : Picture based subtitle format used on BDs/HD-DVDs
Duration : 1 h 53 min
Bit rate : 38.7 kb/s
Count of elements : 3780
Stream size : 31.5 MiB (0%)
Language : Norwegian
Default : No
Forced : No

Text #11
ID : 14
Format : PGS
Muxing mode : zlib
Codec ID : S_HDMV/PGS
Codec ID/Info : Picture based subtitle format used on BDs/HD-DVDs
Duration : 1 h 53 min
Bit rate : 31.3 kb/s
Count of elements : 2110
Stream size : 25.5 MiB (0%)
Language : Swedish
Default : No
Forced : No

Text #12
ID : 15
Format : PGS
Muxing mode : zlib
Codec ID : S_HDMV/PGS
Codec ID/Info : Picture based subtitle format used on BDs/HD-DVDs
Duration : 13 s 597 ms
Bit rate : 64.5 kb/s
Count of elements : 12
Stream size : 107 KiB (0%)
Language : English
Default : No
Forced : Yes

Menu
00:00:00.000 : Chapter 01
00:05:09.100 : Chapter 02
00:08:43.815 : Chapter 03
00:14:29.702 : Chapter 04
00:21:25.701 : Chapter 05
00:24:06.028 : Chapter 06
00:28:25.245 : Chapter 07
00:34:21.810 : Chapter 08
00:39:40.837 : Chapter 09
00:44:10.731 : Chapter 10
00:48:47.967 : Chapter 11
00:52:47.748 : Chapter 12
00:56:18.375 : Chapter 13
01:00:17.739 : Chapter 14
01:04:41.920 : Chapter 15
01:09:13.816 : Chapter 16
01:15:13.300 : Chapter 17
01:19:14.083 : Chapter 18
01:23:59.326 : Chapter 19
01:28:06.406 : Chapter 20
01:33:07.415 : Chapter 21
01:39:19.954 : Chapter 22
01:44:22.506 : Chapter 23
01:46:13.993 : Chapter 24
Screenshots

Video
ID : 1
Format : HEVC
Format/Info : High Efficiency Video Coding
Format profile : Main 10@L5@High
HDR format : SMPTE ST 2086, HDR10 compatible
Codec ID : V_MPEGH/ISO/HEVC
Duration : 1 h 54 min
Bit rate : 14.0 Mb/s
Width : 3 840 pixels
Height : 1 606 pixels
Display aspect ratio : 2.40:1
Frame rate mode : Constant
Frame rate : 23.976 FPS
Color space : YUV
Chroma subsampling : 4:2:0 (Type 2)
Bit depth : 10 bits
Bits/(Pixel*Frame) : 0.095
Stream size : 11.3 GiB (70%)
Default : Yes
Forced : No
Color range : Limited
Color primaries : BT.2020
Transfer characteristics : PQ
Matrix coefficients : BT.2020 non-constant
Mastering display color primaries : BT.2020
Mastering display luminance : min: 0.0050 cd/m2, max: 1000 cd/m2
Maximum Content Light Level : 1440 cd/m2
Maximum Frame-Average Light Level : 141 cd/m2

Audio #1
ID : 2
Format : DTS ES XLL
Format/Info : Digital Theater Systems
Commercial name : DTS-HD Master Audio
Codec ID : A_DTS
Duration : 1 h 54 min
Bit rate mode : Variable
Bit rate : 5 071 kb/s
Channel(s) : 8 channels
Channel layout : C L R Ls Rs LFE Lb Rb
Sampling rate : 48.0 kHz
Frame rate : 93.750 FPS (512 SPF)
Bit depth : 24 bits
Compression mode : Lossless
Delay relative to video : 3 ms
Stream size : 4.07 GiB (25%)
Title : DTS-HD MA 7.1
Language : English
Default : Yes
Forced : No

Audio #2
ID : 3
Format : E-AC-3 JOC
Format/Info : Enhanced AC-3 with Joint Object Coding
Commercial name : Dolby Digital Plus with Dolby Atmos
Codec ID : A_EAC3
Duration : 1 h 54 min
Bit rate mode : Constant
Bit rate : 768 kb/s
Channel(s) : 6 channels
Channel layout : L R C LFE Ls Rs
Sampling rate : 48.0 kHz
Frame rate : 31.250 FPS (1536 SPF)
Compression mode : Lossy
Stream size : 631 MiB (4%)
Title : English
Language : English
Service kind : Complete Main
Default : No
Forced : No
Complexity index : 16
Number of dynamic objects : 15
Bed channel count : 1 channel
Bed channel configuration : LFE

Text #1
ID : 4
Format : UTF-8
Codec ID : S_TEXT/UTF8
Codec ID/Info : UTF-8 Plain Text
Duration : 13 s 597 ms
Bit rate : 98 b/s
Count of elements : 6
Stream size : 168 Bytes (0%)
Title : FORCED
Language : English
Default : No
Forced : Yes

Text #2
ID : 5
Format : UTF-8
Codec ID : S_TEXT/UTF8
Codec ID/Info : UTF-8 Plain Text
Duration : 1 h 45 min
Bit rate : 80 b/s
Count of elements : 1902
Stream size : 62.4 KiB (0%)
Language : English
Default : No
Forced : No

Text #3
ID : 6
Format : UTF-8
Codec ID : S_TEXT/UTF8
Codec ID/Info : UTF-8 Plain Text
Duration : 1 h 45 min
Bit rate : 90 b/s
Count of elements : 2135
Stream size : 70.0 KiB (0%)
Title : SDH
Language : English
Default : No
Forced : No

Text #4
ID : 7
Format : PGS
Muxing mode : zlib
Codec ID : S_HDMV/PGS
Codec ID/Info : Picture based subtitle format used on BDs/HD-DVDs
Duration : 1 h 45 min
Bit rate : 58.5 kb/s
Count of elements : 4270
Stream size : 44.2 MiB (0%)
Title : SDH
Language : English
Default : No
Forced : No

Text #5
ID : 8
Format : PGS
Muxing mode : zlib
Codec ID : S_HDMV/PGS
Codec ID/Info : Picture based subtitle format used on BDs/HD-DVDs
Duration : 1 h 53 min
Bit rate : 34.6 kb/s
Count of elements : 2300
Stream size : 28.2 MiB (0%)
Language : Danish
Default : No
Forced : No

Text #6
ID : 9
Format : PGS
Muxing mode : zlib
Codec ID : S_HDMV/PGS
Codec ID/Info : Picture based subtitle format used on BDs/HD-DVDs
Duration : 1 h 53 min
Bit rate : 34.1 kb/s
Count of elements : 2744
Stream size : 27.8 MiB (0%)
Language : Dutch
Default : No
Forced : No

Text #7
ID : 10
Format : PGS
Muxing mode : zlib
Codec ID : S_HDMV/PGS
Codec ID/Info : Picture based subtitle format used on BDs/HD-DVDs
Duration : 1 h 53 min
Bit rate : 44.4 kb/s
Count of elements : 3758
Stream size : 36.2 MiB (0%)
Language : Finnish
Default : No
Forced : No

Text #8
ID : 11
Format : PGS
Muxing mode : zlib
Codec ID : S_HDMV/PGS
Codec ID/Info : Picture based subtitle format used on BDs/HD-DVDs
Duration : 1 h 53 min
Bit rate : 33.7 kb/s
Count of elements : 3396
Stream size : 27.5 MiB (0%)
Language : French
Default : No
Forced : No

Text #9
ID : 12
Format : PGS
Muxing mode : zlib
Codec ID : S_HDMV/PGS
Codec ID/Info : Picture based subtitle format used on BDs/HD-DVDs
Duration : 1 h 53 min
Bit rate : 39.1 kb/s
Count of elements : 3696
Stream size : 31.9 MiB (0%)
Language : German
Default : No
Forced : No

Text #10
ID : 13
Format : PGS
Muxing mode : zlib
Codec ID : S_HDMV/PGS
Codec ID/Info : Picture based subtitle format used on BDs/HD-DVDs
Duration : 1 h 53 min
Bit rate : 38.7 kb/s
Count of elements : 3780
Stream size : 31.5 MiB (0%)
Language : Norwegian
Default : No
Forced : No

Text #11
ID : 14
Format : PGS
Muxing mode : zlib
Codec ID : S_HDMV/PGS
Codec ID/Info : Picture based subtitle format used on BDs/HD-DVDs
Duration : 1 h 53 min
Bit rate : 31.3 kb/s
Count of elements : 2110
Stream size : 25.5 MiB (0%)
Language : Swedish
Default : No
Forced : No

Text #12
ID : 15
Format : PGS
Muxing mode : zlib
Codec ID : S_HDMV/PGS
Codec ID/Info : Picture based subtitle format used on BDs/HD-DVDs
Duration : 13 s 597 ms
Bit rate : 64.5 kb/s
Count of elements : 12
Stream size : 107 KiB (0%)
Language : English
Default : No
Forced : Yes

Menu
00:00:00.000 : Chapter 01
00:05:09.100 : Chapter 02
00:08:43.815 : Chapter 03
00:14:29.702 : Chapter 04
00:21:25.701 : Chapter 05
00:24:06.028 : Chapter 06
00:28:25.245 : Chapter 07
00:34:21.810 : Chapter 08
00:39:40.837 : Chapter 09
00:44:10.731 : Chapter 10
00:48:47.967 : Chapter 11
00:52:47.748 : Chapter 12
00:56:18.375 : Chapter 13
01:00:17.739 : Chapter 14
01:04:41.920 : Chapter 15
01:09:13.816 : Chapter 16
01:15:13.300 : Chapter 17
01:19:14.083 : Chapter 18
01:23:59.326 : Chapter 19
01:28:06.406 : Chapter 20
01:33:07.415 : Chapter 21
01:39:19.954 : Chapter 22
01:44:22.506 : Chapter 23
01:46:13.993 : Chapter 24
Screenshots

FREE GUY (2021) • MOVIE | BLURAY.REMUX – FRAMESTOR + BDRip + HDRip
https://ambassadorddl.site/free-guy-2021-movie-bluray-remux-framestor/
Free Guy (2021) • Movie | 1080p-BluRay-x265-Tigole-QxR
https://ambassadorddl.site/free-guy-2021-movie-1080p-bluray-x265-tigole-qxr/
Readme

Password & My Message