Fast Download Mirrors

Goliath (2016–2021) • TVSeries | Season – 4

Goliath (2016–2021) • TVSeries | Season - 4
Goliath 60min | Drama | October 14, 2016 (United States) Summary: A disgraced lawyer, now an ambulance chaser, gets a case that could bring him redemption or at least revenge on the firm which expelled him.
Countries: United StatesLanguages: English

A disgraced lawyer, now an ambulance chaser, gets a case that could bring him redemption or at least revenge on the firm which expelled him.

Mirrors: MirrorAce, MultiUp, Gdrive[GDTOT, Sharer]
Format: MKV
Credits: RARBG

Download

Goliath.S04E01.1080p.AMZN.WEB-DL.DDP5.1.H.264-NTb.mkv - 2.18 GB
Goliath.S04E02.1080p.AMZN.WEB-DL.DDP5.1.H.264-NTb.mkv - 1.87 GB
Goliath.S04E03.1080p.AMZN.WEB-DL.DDP5.1.H.264-NTb.mkv - 1.55 GB
Goliath.S04E04.1080p.AMZN.WEB-DL.DDP5.1.H.264-NTb.mkv - 1.49 GB
Goliath.S04E05.1080p.AMZN.WEB-DL.DDP5.1.H.264-NTb.mkv - 1.9 GB
Goliath.S04E06.1080p.AMZN.WEB-DL.DDP5.1.H.264-NTb.mkv - 1.3 GB
Goliath.S04E07.1080p.AMZN.WEB-DL.DDP5.1.H.264-NTb.mkv - 1.71 GB
Goliath.S04E08.1080p.AMZN.WEB-DL.DDP5.1.H.264-NTb.mkv - 2.29 GB

https://mirrorace.org/m/13szq
https://mirrorace.org/m/13szr
https://mirrorace.org/m/13szu
https://mirrorace.org/m/13szw
https://mirrorace.org/m/13szx
https://mirrorace.org/m/13szz
https://mirrorace.org/m/1Jq1U
https://mirrorace.org/m/1Jq1W

https://multiup.org/f130480460d585348ae08d7879a6e7b5
https://multiup.org/aae933980323a6a0fe7a2a145e585881
https://multiup.org/14a352abe30ecbbd27bfbc85d81a630f
https://multiup.org/c1cd924334bff67ae2fae4b0b230fcd4
https://multiup.org/1cbc743c524cc65f027a5e1f63f02861
https://multiup.org/fed9052b9ad171781f56311667be2ef9
https://multiup.org/a8ce639c1112d692b06b8876039be8a8
https://multiup.org/008190de697dac4f14befb64b0ba473a

https://new.gdtot.me/file/2336450163
https://new.gdtot.me/file/2010244857
https://new.gdtot.me/file/1660501926
https://new.gdtot.me/file/1596898997
https://new.gdtot.me/file/2035261500
https://new.gdtot.me/file/1400787149
https://new.gdtot.me/file/1839967037
https://new.gdtot.me/file/2458993848

https://sharer.pw/file/W9k0k_eAI6lG
https://sharer.pw/file/21QVygNLFBCs
https://sharer.pw/file/2Y63R-2TmrPN
https://sharer.pw/file/tjR3K7PPn9HQ
https://sharer.pw/file/ytT2EJ7fwDzL
https://sharer.pw/file/cw-wVNjWpx9W
https://sharer.pw/file/s_tZIjG3ZKaQ
https://sharer.pw/file/BNsU_BiTjliP
Video
ID : 1
Format : AVC
Format/Info : Advanced Video Codec
Format profile : High@L4
Format settings : CABAC / 4 Ref Frames
Format settings, CABAC : Yes
Format settings, Reference frames : 4 frames
Codec ID : V_MPEG4/ISO/AVC
Duration : 53 min 42 s
Bit rate mode : Constant
Bit rate : 5 457 kb/s
Nominal bit rate : 10 000 kb/s
Width : 1 920 pixels
Height : 1 080 pixels
Display aspect ratio : 16:9
Frame rate mode : Constant
Frame rate : 23.976 (24000/1001) FPS
Color space : YUV
Chroma subsampling : 4:2:0
Bit depth : 8 bits
Scan type : Progressive
Bits/(Pixel*Frame) : 0.110
Stream size : 2.05 GiB (89%)
Default : Yes
Forced : No
Color range : Limited
Color primaries : BT.709
Transfer characteristics : BT.709
Matrix coefficients : BT.709

Audio
ID : 2
Format : E-AC-3
Format/Info : Enhanced AC-3
Commercial name : Dolby Digital Plus
Codec ID : A_EAC3
Duration : 53 min 42 s
Bit rate mode : Constant
Bit rate : 640 kb/s
Channel(s) : 6 channels
Channel layout : L R C LFE Ls Rs
Sampling rate : 48.0 kHz
Frame rate : 31.250 FPS (1536 SPF)
Compression mode : Lossy
Stream size : 246 MiB (10%)
Language : English
Service kind : Complete Main
Default : Yes
Forced : No

Text #1
ID : 3
Format : UTF-8
Codec ID : S_TEXT/UTF8
Codec ID/Info : UTF-8 Plain Text
Duration : 49 min 58 s
Bit rate : 78 b/s
Count of elements : 914
Stream size : 28.7 KiB (0%)
Language : English
Default : No
Forced : No

Text #2
ID : 4
Format : UTF-8
Codec ID : S_TEXT/UTF8
Codec ID/Info : UTF-8 Plain Text
Duration : 52 min 42 s
Bit rate : 78 b/s
Count of elements : 976
Stream size : 30.5 KiB (0%)
Title : SDH
Language : English
Default : No
Forced : No

Text #3
ID : 5
Format : UTF-8
Codec ID : S_TEXT/UTF8
Codec ID/Info : UTF-8 Plain Text
Duration : 53 min 24 s
Bit rate : 116 b/s
Count of elements : 772
Stream size : 45.6 KiB (0%)
Language : Arabic
Default : No
Forced : No

Text #4
ID : 6
Format : UTF-8
Codec ID : S_TEXT/UTF8
Codec ID/Info : UTF-8 Plain Text
Duration : 52 min 48 s
Bit rate : 76 b/s
Count of elements : 769
Stream size : 29.8 KiB (0%)
Language : Czech
Default : No
Forced : No

Text #5
ID : 7
Format : UTF-8
Codec ID : S_TEXT/UTF8
Codec ID/Info : UTF-8 Plain Text
Duration : 52 min 48 s
Bit rate : 68 b/s
Count of elements : 767
Stream size : 26.6 KiB (0%)
Language : Danish
Default : No
Forced : No

Text #6
ID : 8
Format : UTF-8
Codec ID : S_TEXT/UTF8
Codec ID/Info : UTF-8 Plain Text
Duration : 52 min 42 s
Bit rate : 67 b/s
Count of elements : 628
Stream size : 26.2 KiB (0%)
Language : German
Default : No
Forced : No

Text #7
ID : 9
Format : UTF-8
Codec ID : S_TEXT/UTF8
Codec ID/Info : UTF-8 Plain Text
Duration : 53 min 24 s
Bit rate : 130 b/s
Count of elements : 771
Stream size : 51.0 KiB (0%)
Language : Greek
Default : No
Forced : No

Text #8
ID : 10
Format : UTF-8
Codec ID : S_TEXT/UTF8
Codec ID/Info : UTF-8 Plain Text
Duration : 52 min 48 s
Bit rate : 71 b/s
Count of elements : 768
Stream size : 27.7 KiB (0%)
Title : Latinoamérica
Language : Spanish
Default : No
Forced : No

Text #9
ID : 11
Format : UTF-8
Codec ID : S_TEXT/UTF8
Codec ID/Info : UTF-8 Plain Text
Duration : 52 min 48 s
Bit rate : 71 b/s
Count of elements : 767
Stream size : 27.7 KiB (0%)
Title : España
Language : Spanish
Default : No
Forced : No

Text #10
ID : 12
Format : UTF-8
Codec ID : S_TEXT/UTF8
Codec ID/Info : UTF-8 Plain Text
Duration : 52 min 48 s
Bit rate : 69 b/s
Count of elements : 761
Stream size : 26.8 KiB (0%)
Language : Finnish
Default : No
Forced : No

Text #11
ID : 13
Format : UTF-8
Codec ID : S_TEXT/UTF8
Codec ID/Info : UTF-8 Plain Text
Duration : 52 min 48 s
Bit rate : 71 b/s
Count of elements : 751
Stream size : 27.6 KiB (0%)
Language : fil
Default : No
Forced : No

Text #12
ID : 14
Format : UTF-8
Codec ID : S_TEXT/UTF8
Codec ID/Info : UTF-8 Plain Text
Duration : 52 min 48 s
Bit rate : 70 b/s
Count of elements : 767
Stream size : 27.4 KiB (0%)
Language : French
Default : No
Forced : No

Text #13
ID : 15
Format : UTF-8
Codec ID : S_TEXT/UTF8
Codec ID/Info : UTF-8 Plain Text
Duration : 53 min 24 s
Bit rate : 102 b/s
Count of elements : 770
Stream size : 40.2 KiB (0%)
Language : Hebrew
Default : No
Forced : No

Text #14
ID : 16
Format : UTF-8
Codec ID : S_TEXT/UTF8
Codec ID/Info : UTF-8 Plain Text
Duration : 53 min 25 s
Bit rate : 170 b/s
Count of elements : 772
Stream size : 66.6 KiB (0%)
Language : Hindi
Default : No
Forced : No

Text #15
ID : 17
Format : UTF-8
Codec ID : S_TEXT/UTF8
Codec ID/Info : UTF-8 Plain Text
Duration : 52 min 48 s
Bit rate : 70 b/s
Count of elements : 767
Stream size : 27.4 KiB (0%)
Language : Hungarian
Default : No
Forced : No

Text #16
ID : 18
Format : UTF-8
Codec ID : S_TEXT/UTF8
Codec ID/Info : UTF-8 Plain Text
Duration : 52 min 48 s
Bit rate : 68 b/s
Count of elements : 767
Stream size : 26.5 KiB (0%)
Language : Indonesian
Default : No
Forced : No

Text #17
ID : 19
Format : UTF-8
Codec ID : S_TEXT/UTF8
Codec ID/Info : UTF-8 Plain Text
Duration : 52 min 48 s
Bit rate : 71 b/s
Count of elements : 769
Stream size : 27.8 KiB (0%)
Language : Italian
Default : No
Forced : No

Text #18
ID : 20
Format : UTF-8
Codec ID : S_TEXT/UTF8
Codec ID/Info : UTF-8 Plain Text
Duration : 52 min 47 s
Bit rate : 59 b/s
Count of elements : 731
Stream size : 23.0 KiB (0%)
Language : Japanese
Default : No
Forced : No

Text #19
ID : 21
Format : UTF-8
Codec ID : S_TEXT/UTF8
Codec ID/Info : UTF-8 Plain Text
Duration : 53 min 24 s
Bit rate : 89 b/s
Count of elements : 772
Stream size : 35.2 KiB (0%)
Language : Korean
Default : No
Forced : No

Text #20
ID : 22
Format : UTF-8
Codec ID : S_TEXT/UTF8
Codec ID/Info : UTF-8 Plain Text
Duration : 52 min 48 s
Bit rate : 66 b/s
Count of elements : 765
Stream size : 25.8 KiB (0%)
Language : Malay
Default : No
Forced : No

Text #21
ID : 23
Format : UTF-8
Codec ID : S_TEXT/UTF8
Codec ID/Info : UTF-8 Plain Text
Duration : 52 min 48 s
Bit rate : 67 b/s
Count of elements : 767
Stream size : 26.1 KiB (0%)
Language : Norwegian Bokmal
Default : No
Forced : No

Text #22
ID : 24
Format : UTF-8
Codec ID : S_TEXT/UTF8
Codec ID/Info : UTF-8 Plain Text
Duration : 52 min 48 s
Bit rate : 65 b/s
Count of elements : 767
Stream size : 25.5 KiB (0%)
Language : Dutch
Default : No
Forced : No

Text #23
ID : 25
Format : UTF-8
Codec ID : S_TEXT/UTF8
Codec ID/Info : UTF-8 Plain Text
Duration : 52 min 48 s
Bit rate : 66 b/s
Count of elements : 768
Stream size : 25.9 KiB (0%)
Language : Polish
Default : No
Forced : No

Text #24
ID : 26
Format : UTF-8
Codec ID : S_TEXT/UTF8
Codec ID/Info : UTF-8 Plain Text
Duration : 52 min 48 s
Bit rate : 68 b/s
Count of elements : 765
Stream size : 26.4 KiB (0%)
Title : Brasil
Language : Portuguese
Default : No
Forced : No

Text #25
ID : 27
Format : UTF-8
Codec ID : S_TEXT/UTF8
Codec ID/Info : UTF-8 Plain Text
Duration : 52 min 48 s
Bit rate : 70 b/s
Count of elements : 768
Stream size : 27.5 KiB (0%)
Title : Portugal
Language : Portuguese
Default : No
Forced : No

Text #26
ID : 28
Format : UTF-8
Codec ID : S_TEXT/UTF8
Codec ID/Info : UTF-8 Plain Text
Duration : 52 min 48 s
Bit rate : 69 b/s
Count of elements : 765
Stream size : 26.9 KiB (0%)
Language : Romanian
Default : No
Forced : No

Text #27
ID : 29
Format : UTF-8
Codec ID : S_TEXT/UTF8
Codec ID/Info : UTF-8 Plain Text
Duration : 53 min 25 s
Bit rate : 120 b/s
Count of elements : 772
Stream size : 47.0 KiB (0%)
Language : Russian
Default : No
Forced : No

Text #28
ID : 30
Format : UTF-8
Codec ID : S_TEXT/UTF8
Codec ID/Info : UTF-8 Plain Text
Duration : 52 min 48 s
Bit rate : 71 b/s
Count of elements : 767
Stream size : 27.8 KiB (0%)
Language : Swedish
Default : No
Forced : No

Text #29
ID : 31
Format : UTF-8
Codec ID : S_TEXT/UTF8
Codec ID/Info : UTF-8 Plain Text
Duration : 53 min 24 s
Bit rate : 184 b/s
Count of elements : 772
Stream size : 72.0 KiB (0%)
Language : Tamil
Default : No
Forced : No

Text #30
ID : 32
Format : UTF-8
Codec ID : S_TEXT/UTF8
Codec ID/Info : UTF-8 Plain Text
Duration : 53 min 25 s
Bit rate : 184 b/s
Count of elements : 772
Stream size : 72.3 KiB (0%)
Language : Telugu
Default : No
Forced : No

Text #31
ID : 33
Format : UTF-8
Codec ID : S_TEXT/UTF8
Codec ID/Info : UTF-8 Plain Text
Duration : 53 min 24 s
Bit rate : 176 b/s
Count of elements : 772
Stream size : 68.9 KiB (0%)
Language : Thai
Default : No
Forced : No

Text #32
ID : 34
Format : UTF-8
Codec ID : S_TEXT/UTF8
Codec ID/Info : UTF-8 Plain Text
Duration : 52 min 48 s
Bit rate : 71 b/s
Count of elements : 767
Stream size : 27.7 KiB (0%)
Language : Turkish
Default : No
Forced : No

Text #33
ID : 35
Format : UTF-8
Codec ID : S_TEXT/UTF8
Codec ID/Info : UTF-8 Plain Text
Duration : 53 min 24 s
Bit rate : 63 b/s
Count of elements : 772
Stream size : 24.9 KiB (0%)
Title : 简体
Language : Chinese
Default : No
Forced : No

Text #34
ID : 36
Format : UTF-8
Codec ID : S_TEXT/UTF8
Codec ID/Info : UTF-8 Plain Text
Duration : 53 min 24 s
Bit rate : 57 b/s
Count of elements : 772
Stream size : 22.4 KiB (0%)
Title : 繁體
Language : Chinese
Default : No
Forced : No

Menu
00:00:00.000 : Amazon Original
00:00:04.000 : Scene 2
00:03:01.000 : Scene 3
00:03:31.000 : Title Sequence
00:03:41.000 : Scene 5
00:06:19.000 : Scene 6
00:21:18.000 : Scene 7
00:28:30.000 : Scene 8
00:37:03.000 : Scene 9
00:42:13.000 : Scene 10
00:44:28.000 : Scene 11
00:48:42.000 : Scene 12
00:51:16.000 : End Credits
General
Filename.......: Goliath.S04E01.Hadleyville.1080p.AMZN.WEB-DL.DDP5.1.H.264-NTb.mkv
Container......: Matroska
Duration.......: 48 min 45 s
Size...........: 2.18 GiB

Video
Codec..........: AVC High @ L4 8 bits
Type...........: Progressive
Resolution.....: 1920x1080
Bit rate.......: 5 742 kb/s
Frame rate.....: 23.976 (24000/1001) FPS

Audio
Format.........: E-AC-3
Channels.......: 6 channels
Bit rate.......: 640 kb/s
Language.......: English

Subtitles
Language.......: English
Language.......: Arabic
Language.......: Czech
Language.......: Danish
Language.......: German
Language.......: Greek
Language.......: Spanish
Language.......: Finnish
Language.......: fil
Language.......: French
Language.......: Hebrew
Language.......: Hindi
Language.......: Hungarian
Language.......: Indonesian
Language.......: Italian
Language.......: Japanese
Language.......: Korean
Language.......: Malay
Language.......: Norwegian Bokmal
Language.......: Dutch
Language.......: Polish
Language.......: Portuguese
Language.......: Romanian
Language.......: Russian
Language.......: Swedish
Language.......: Tamil
Language.......: Telugu
Language.......: Thai
Language.......: Turkish
Language.......: Chinese

Readme

Password & My Message

Screenshots