Fast Download Mirrors

Helmet (2021) • Movie

Helmet (2021) • Movie
Helmet Comedy | September 3, 2021 (India) Summary: A quirky comedy from the heartland of India, it touches upon a topic that is considered embarrassing for most people in India and will showcase the same in a hilariously entertaining manner.
Languages: Hindi

Desperate to make some quick money, Lucky and his friends rob an e-commerce company truck. But to their surprise, the looted boxes contain condoms instead of electronic gadgets. They decide to sell them directly to the people, who want the product but are too embarrassed to buy it publicly.

Mirrors: MirrorAce, MultiUp, Gdrive[GDTOT,Sharer]
Format: MKV
Credits: Telly
Audio: Hindi Only

Download

General
Unique ID                                : 244366907058583441510928612098277828717 (0xB7D75AB821F7D55B8CF7DAFF7DD2E86D)
Complete name                            : Helmet.2021.1080p.ZEE5.WEB-DL.AAC2.0.H.264-Telly.mkv
Format                                   : Matroska
Format version                           : Version 4
File size                                : 2.03 GiB
Duration                                 : 1 h 44 min
Overall bit rate mode                    : Variable
Overall bit rate                         : 2 781 kb/s
Encoded date                             : UTC 2021-09-02 18:08:23
Writing application                      : mkvmerge v11.0.0 ('Alive') 64bit
Writing library                          : libebml v1.3.4 + libmatroska v1.4.5

Video
ID                                       : 1
Format                                   : AVC
Format/Info                              : Advanced Video Codec
Format profile                           : High@L4.1
Format settings                          : CABAC / 4 Ref Frames
Format settings, CABAC                   : Yes
Format settings, ReFrames                : 4 frames
Format settings, GOP                     : M=4, N=50
Codec ID                                 : V_MPEG4/ISO/AVC
Duration                                 : 1 h 44 min
Bit rate mode                            : Variable
Bit rate                                 : 2 714 kb/s
Maximum bit rate                         : 4 300 kb/s
Width                                    : 1 920 pixels
Height                                   : 800 pixels
Display aspect ratio                     : 2.40:1
Frame rate mode                          : Constant
Frame rate                               : 25.000 FPS
Standard                                 : PAL
Color space                              : YUV
Chroma subsampling                       : 4:2:0
Bit depth                                : 8 bits
Scan type                                : Progressive
Bits/(Pixel*Frame)                       : 0.071
Stream size                              : 1.98 GiB (98%)
Default                                  : Yes
Forced                                   : No
Color range                              : Limited
Color primaries                          : BT.709
Transfer characteristics                 : BT.709
Matrix coefficients                      : BT.709

Audio
ID                                       : 2
Format                                   : AAC LC
Format/Info                              : Advanced Audio Codec Low Complexity
Codec ID                                 : A_AAC-2
Duration                                 : 1 h 44 min
Bit rate                                 : 64.0 kb/s
Channel(s)                               : 2 channels
Channel layout                           : L R
Sampling rate                            : 48.0 kHz
Frame rate                               : 46.875 FPS (1024 SPF)
Compression mode                         : Lossy
Stream size                              : 47.8 MiB (2%)
Language                                 : Hindi
Default                                  : Yes
Forced                                   : No

Text
ID                                       : 3
Format                                   : UTF-8
Codec ID                                 : S_TEXT/UTF8
Codec ID/Info                            : UTF-8 Plain Text
Duration                                 : 1 h 39 min
Bit rate                                 : 87 b/s
Count of elements                        : 2096
Stream size                              : 63.5 KiB (0%)
Language                                 : English
Default                                  : No
Forced                                   : No

Readme

Password & My Message

Screenshots