Fast Download Mirrors

Home Alone 25th Anniversary Edition Collection (1990-2012) • Movies | 1080p 10bit Bluray / WEBRip

Home Alone 25th Anniversary Edition Collection (1990-2012) • Movies
Mirrors: GDrive Index, Gdrive[GDTOT, Sharer], MultiUp, MirrorAce
Format: MKV
Credits: TombDoc

Celebrate 25 years of holiday hijinks and hilarity with the ultimate Home Alone Collection including all 5 movies together for the first time! Start with the original blockbuster hit comedy starring Joe Pesci, Daniel Stern and Macaulay Culkin as Kevin McCallister an adorable eight-year-old determined to defend his house against burglars using an outrageous array of ingenious booby traps. Then gather the whole family for a fun-filled Home Alone marathon with 4 side-splitting sequels packed with even more techo-gadgets, awesome ambushes and crime-stopping wizardry!

Includes all 5 films together for first time!

  • Home Alone
  • Home Alone 2: Lost in New York
  • Home Alone 3
  • Home Alone: Taking Back the House
  • Home Alone: The Holiday Heist

Download

Format                                   : Matroska
Format version                           : Version 4
File size                                : 3.50 GiB
Duration                                 : 1 h 42 min
Overall bit rate                         : 4 867 kb/s

Video
ID                                       : 1
Format                                   : HEVC
Format/Info                              : High Efficiency Video Coding
Format profile                           : Main 10@L4@Main
Codec ID                                 : V_MPEGH/ISO/HEVC
Duration                                 : 1 h 42 min
Bit rate                                 : 3 990 kb/s
Width                                    : 1 920 pixels
Height                                   : 1 040 pixels
Display aspect ratio                     : 1.85:1
Frame rate mode                          : Constant
Frame rate                               : 23.976 (24000/1001) FPS
Color space                              : YUV
Chroma subsampling                       : 4:2:0
Bit depth                                : 10 bits
Bits/(Pixel*Frame)                       : 0.083
Stream size                              : 2.87 GiB (82%)
Default                                  : Yes
Forced                                   : No

Audio #1
ID                                       : 2
Format                                   : AC-3
Format/Info                              : Audio Coding 3
Commercial name                          : Dolby Digital
Codec ID                                 : A_AC3
Duration                                 : 1 h 42 min
Bit rate mode                            : Constant
Bit rate                                 : 224 kb/s
Channel(s)                               : 2 channels
Channel layout                           : L R
Sampling rate                            : 48.0 kHz
Frame rate                               : 31.250 FPS (1536 SPF)
Compression mode                         : Lossy
Stream size                              : 165 MiB (5%)
Title                                    : Org VCD DD 2.0 224Kbps ~ TombDoc
Language                                 : Hindi
Service kind                             : Complete Main
Default                                  : Yes
Forced                                   : Yes

Audio #2
ID                                       : 3
Format                                   : AC-3
Format/Info                              : Audio Coding 3
Commercial name                          : Dolby Digital
Codec ID                                 : A_AC3
Duration                                 : 1 h 42 min
Bit rate mode                            : Constant
Bit rate                                 : 640 kb/s
Channel(s)                               : 6 channels
Channel layout                           : L R C LFE Ls Rs
Sampling rate                            : 48.0 kHz
Frame rate                               : 31.250 FPS (1536 SPF)
Compression mode                         : Lossy
Stream size                              : 471 MiB (13%)
Title                                    : DD 5.1 English
Language                                 : English
Service kind                             : Complete Main
Default                                  : No
Forced                                   : No

Text
ID                                       : 4
Format                                   : PGS
Muxing mode                              : zlib
Codec ID                                 : S_HDMV/PGS
Codec ID/Info                            : Picture based subtitle format used on BDs/HD-DVDs
Duration                                 : 1 h 41 min
Bit rate                                 : 25.9 kb/s
Count of elements                        : 2016
Stream size                              : 18.7 MiB (1%)
Title                                    : Eng BD-PGS
Language                                 : English
Default                                  : Yes
Forced                                   : Yes

Menu
00:00:00.000                             : en:00:00:00.000
00:03:47.060                             : en:00:03:47.060
00:05:46.680                             : en:00:05:46.680
00:08:49.279                             : en:00:08:49.279
00:11:28.730                             : en:00:11:28.730
00:13:43.239                             : en:00:13:43.239
00:19:27.458                             : en:00:19:27.458
00:25:08.173                             : en:00:25:08.173
00:31:16.041                             : en:00:31:16.041
00:35:56.654                             : en:00:35:56.654
00:41:09.550                             : en:00:41:09.550
00:51:22.663                             : en:00:51:22.663
00:57:38.580                             : en:00:57:38.580
01:03:27.637                             : en:01:03:27.637
01:06:33.656                             : en:01:06:33.656
01:13:43.836                             : en:01:13:43.836
01:15:13.217                             : en:01:15:13.217
01:19:27.054                             : en:01:19:27.054
01:22:51.341                             : en:01:22:51.341
01:26:00.072                             : en:01:26:00.072
01:28:45.070                             : en:01:28:45.070
01:33:32.232                             : en:01:33:32.232
01:37:58.289                             : en:01:37:58.289
01:39:06.065                             : en:01:39:06.065
Screenshots

Format                                   : Matroska
Format version                           : Version 4
File size                                : 4.09 GiB
Duration                                 : 2 h 0 min
Overall bit rate                         : 4 873 kb/s

Video
ID                                       : 1
Format                                   : HEVC
Format/Info                              : High Efficiency Video Coding
Format profile                           : Main 10@L4@Main
Codec ID                                 : V_MPEGH/ISO/HEVC
Duration                                 : 2 h 0 min
Bit rate                                 : 3 999 kb/s
Width                                    : 1 920 pixels
Height                                   : 1 040 pixels
Display aspect ratio                     : 1.85:1
Frame rate mode                          : Constant
Frame rate                               : 23.976 (24000/1001) FPS
Color space                              : YUV
Chroma subsampling                       : 4:2:0
Bit depth                                : 10 bits
Bits/(Pixel*Frame)                       : 0.084
Stream size                              : 3.35 GiB (82%)
Default                                  : Yes
Forced                                   : No
Color range                              : Limited
Color primaries                          : BT.709
Transfer characteristics                 : BT.709
Matrix coefficients                      : BT.709

Audio #1
ID                                       : 2
Format                                   : AC-3
Format/Info                              : Audio Coding 3
Commercial name                          : Dolby Digital
Codec ID                                 : A_AC3
Duration                                 : 2 h 0 min
Bit rate mode                            : Constant
Bit rate                                 : 224 kb/s
Channel(s)                               : 2 channels
Channel layout                           : L R
Sampling rate                            : 48.0 kHz
Frame rate                               : 31.250 FPS (1536 SPF)
Compression mode                         : Lossy
Stream size                              : 192 MiB (5%)
Title                                    : Org VCD DD 2.0 224Kbps ~ TombDoc
Language                                 : Hindi
Service kind                             : Complete Main
Default                                  : Yes
Forced                                   : Yes

Audio #2
ID                                       : 3
Format                                   : AC-3
Format/Info                              : Audio Coding 3
Commercial name                          : Dolby Digital
Codec ID                                 : A_AC3
Duration                                 : 2 h 0 min
Bit rate mode                            : Constant
Bit rate                                 : 640 kb/s
Channel(s)                               : 6 channels
Channel layout                           : L R C LFE Ls Rs
Sampling rate                            : 48.0 kHz
Frame rate                               : 31.250 FPS (1536 SPF)
Compression mode                         : Lossy
Stream size                              : 549 MiB (13%)
Title                                    : DD 5.1 English
Language                                 : English
Service kind                             : Complete Main
Default                                  : No
Forced                                   : No

Text
ID                                       : 4
Format                                   : PGS
Muxing mode                              : zlib
Codec ID                                 : S_HDMV/PGS
Codec ID/Info                            : Picture based subtitle format used on BDs/HD-DVDs
Duration                                 : 1 h 57 min
Bit rate                                 : 28.7 kb/s
Count of elements                        : 2090
Stream size                              : 24.2 MiB (1%)
Title                                    : Eng BD-PGS
Language                                 : English
Default                                  : Yes
Forced                                   : Yes

Menu
00:00:00.000                             : en:00:00:00.000
00:02:17.846                             : en:00:02:17.846
00:05:22.614                             : en:00:05:22.614
00:10:25.917                             : en:00:10:25.917
00:16:31.741                             : en:00:16:31.741
00:22:32.434                             : en:00:22:32.434
00:26:09.610                             : en:00:26:09.610
00:30:49.347                             : en:00:30:49.347
00:35:33.506                             : en:00:35:33.506
00:40:43.941                             : en:00:40:43.941
00:43:22.266                             : en:00:43:22.266
00:50:10.216                             : en:00:50:10.216
00:53:56.525                             : en:00:53:56.525
00:56:57.623                             : en:00:56:57.623
01:00:23.453                             : en:01:00:23.453
01:04:19.522                             : en:01:04:19.522
01:08:01.953                             : en:01:08:01.953
01:15:01.664                             : en:01:15:01.664
01:18:51.352                             : en:01:18:51.352
01:23:02.102                             : en:01:23:02.102
01:25:47.768                             : en:01:25:47.768
01:28:27.886                             : en:01:28:27.886
01:31:29.734                             : en:01:31:29.734
01:35:45.448                             : en:01:35:45.448
01:37:20.501                             : en:01:37:20.501
01:38:55.221                             : en:01:38:55.221
01:42:29.685                             : en:01:42:29.685
01:46:56.493                             : en:01:46:56.493
01:55:49.151                             : en:01:55:49.151
Screenshots

Format                                   : Matroska
Format version                           : Version 4
File size                                : 3.48 GiB
Duration                                 : 1 h 42 min
Overall bit rate                         : 4 866 kb/s

Video
ID                                       : 1
Format                                   : HEVC
Format/Info                              : High Efficiency Video Coding
Format profile                           : Main 10@L4@Main
Codec ID                                 : V_MPEGH/ISO/HEVC
Duration                                 : 1 h 42 min
Bit rate                                 : 4 000 kb/s
Width                                    : 1 920 pixels
Height                                   : 1 080 pixels
Display aspect ratio                     : 16:9
Frame rate mode                          : Constant
Frame rate                               : 23.976 (24000/1001) FPS
Color space                              : YUV
Chroma subsampling                       : 4:2:0
Bit depth                                : 10 bits
Bits/(Pixel*Frame)                       : 0.080
Stream size                              : 2.86 GiB (82%)
Default                                  : Yes
Forced                                   : No
Color range                              : Limited
Color primaries                          : BT.709
Transfer characteristics                 : BT.709
Matrix coefficients                      : BT.709

Audio #1
ID                                       : 2
Format                                   : AC-3
Format/Info                              : Audio Coding 3
Commercial name                          : Dolby Digital
Codec ID                                 : A_AC3
Duration                                 : 1 h 42 min
Bit rate mode                            : Constant
Bit rate                                 : 224 kb/s
Channel(s)                               : 2 channels
Channel layout                           : L R
Sampling rate                            : 48.0 kHz
Frame rate                               : 31.250 FPS (1536 SPF)
Compression mode                         : Lossy
Stream size                              : 164 MiB (5%)
Title                                    : Org VCD DD 2.0 224Kbps ~ TombDoc
Language                                 : Hindi
Service kind                             : Complete Main
Default                                  : Yes
Forced                                   : Yes

Audio #2
ID                                       : 3
Format                                   : E-AC-3
Format/Info                              : Enhanced AC-3
Commercial name                          : Dolby Digital Plus
Codec ID                                 : A_EAC3
Duration                                 : 1 h 42 min
Bit rate mode                            : Constant
Bit rate                                 : 640 kb/s
Channel(s)                               : 6 channels
Channel layout                           : L R C LFE Ls Rs
Sampling rate                            : 48.0 kHz
Frame rate                               : 31.250 FPS (1536 SPF)
Compression mode                         : Lossy
Stream size                              : 469 MiB (13%)
Title                                    : DD+ 5.1 English
Language                                 : English
Service kind                             : Complete Main
Default                                  : No
Forced                                   : No

Text
ID                                       : 4
Format                                   : UTF-8
Codec ID                                 : S_TEXT/UTF8
Codec ID/Info                            : UTF-8 Plain Text
Duration                                 : 1 h 37 min
Bit rate                                 : 56 b/s
Count of elements                        : 1293
Stream size                              : 40.7 KiB (0%)
Title                                    : Eng Sub
Language                                 : English
Default                                  : No
Forced                                   : No
Screenshots

Format                                   : Matroska
Format version                           : Version 4
File size                                : 2.70 GiB
Duration                                 : 1 h 23 min
Overall bit rate                         : 4 610 kb/s

Video
ID                                       : 1
Format                                   : HEVC
Format/Info                              : High Efficiency Video Coding
Format profile                           : Main 10@L4@Main
Codec ID                                 : V_MPEGH/ISO/HEVC
Duration                                 : 1 h 23 min
Bit rate                                 : 3 999 kb/s
Width                                    : 1 920 pixels
Height                                   : 1 080 pixels
Display aspect ratio                     : 16:9
Frame rate mode                          : Constant
Frame rate                               : 23.976 (24000/1001) FPS
Color space                              : YUV
Chroma subsampling                       : 4:2:0
Bit depth                                : 10 bits
Bits/(Pixel*Frame)                       : 0.080
Stream size                              : 2.35 GiB (87%)
Default                                  : Yes
Forced                                   : No
Color range                              : Limited
Color primaries                          : BT.709
Transfer characteristics                 : BT.709
Matrix coefficients                      : BT.709

Audio #1
ID                                       : 2
Format                                   : AC-3
Format/Info                              : Audio Coding 3
Commercial name                          : Dolby Digital
Codec ID                                 : A_AC3
Duration                                 : 1 h 23 min
Bit rate mode                            : Constant
Bit rate                                 : 224 kb/s
Channel(s)                               : 2 channels
Channel layout                           : L R
Sampling rate                            : 44.1 kHz
Frame rate                               : 28.711 FPS (1536 SPF)
Compression mode                         : Lossy
Stream size                              : 135 MiB (5%)
Title                                    : Org VCD DD 2.0 224Kbps ~ TombDoc
Language                                 : Hindi
Service kind                             : Complete Main
Default                                  : Yes
Forced                                   : Yes

Audio #2
ID                                       : 3
Format                                   : AC-3
Format/Info                              : Audio Coding 3
Commercial name                          : Dolby Digital
Codec ID                                 : A_AC3
Duration                                 : 1 h 23 min
Bit rate mode                            : Constant
Bit rate                                 : 384 kb/s
Channel(s)                               : 6 channels
Channel layout                           : L R C LFE Ls Rs
Sampling rate                            : 48.0 kHz
Frame rate                               : 31.250 FPS (1536 SPF)
Compression mode                         : Lossy
Delay relative to video                  : 22 ms
Stream size                              : 231 MiB (8%)
Title                                    : DD 5.1 English
Language                                 : English
Service kind                             : Complete Main
Default                                  : No
Forced                                   : No

Text #1
ID                                       : 4
Format                                   : UTF-8
Codec ID                                 : S_TEXT/UTF8
Codec ID/Info                            : UTF-8 Plain Text
Duration                                 : 1 h 23 min
Bit rate                                 : 77 b/s
Count of elements                        : 1367
Stream size                              : 47.6 KiB (0%)
Title                                    : Eng Sub
Language                                 : English
Default                                  : No
Forced                                   : No

Text #2
ID                                       : 5
Format                                   : UTF-8
Codec ID                                 : S_TEXT/UTF8
Codec ID/Info                            : UTF-8 Plain Text
Duration                                 : 1 h 23 min
Bit rate                                 : 83 b/s
Count of elements                        : 1242
Stream size                              : 51.2 KiB (0%)
Title                                    : Eng Sub-SDH
Language                                 : English
Default                                  : No
Forced                                   : No

Menu
00:00:00.000                             : en:Chapter 01
00:06:53.121                             : en:Chapter 02
00:15:45.945                             : en:Chapter 03
00:22:09.244                             : en:Chapter 04
00:28:24.619                             : en:Chapter 05
00:36:15.255                             : en:Chapter 06
00:43:14.798                             : en:Chapter 07
00:50:37.698                             : en:Chapter 08
00:58:56.654                             : en:Chapter 09
01:05:17.867                             : en:Chapter 10
01:13:35.405                             : en:Chapter 11
01:20:26.773                             : en:Chapter 12
Screenshots

Format                                   : Matroska
Format version                           : Version 4
File size                                : 2.93 GiB
Duration                                 : 1 h 30 min
Overall bit rate                         : 4 643 kb/s

Video
ID                                       : 1
Format                                   : HEVC
Format/Info                              : High Efficiency Video Coding
Format profile                           : Main 10@L4@Main
Codec ID                                 : V_MPEGH/ISO/HEVC
Duration                                 : 1 h 30 min
Bit rate                                 : 4 001 kb/s
Width                                    : 1 920 pixels
Height                                   : 1 080 pixels
Display aspect ratio                     : 16:9
Frame rate mode                          : Constant
Frame rate                               : 23.976 (24000/1001) FPS
Color space                              : YUV
Chroma subsampling                       : 4:2:0
Bit depth                                : 10 bits
Bits/(Pixel*Frame)                       : 0.080
Stream size                              : 2.52 GiB (86%)
Default                                  : Yes
Forced                                   : No
Color range                              : Limited
Color primaries                          : BT.709
Transfer characteristics                 : BT.709
Matrix coefficients                      : BT.709

Audio
ID                                       : 2
Format                                   : E-AC-3
Format/Info                              : Enhanced AC-3
Commercial name                          : Dolby Digital Plus
Codec ID                                 : A_EAC3
Duration                                 : 1 h 30 min
Bit rate mode                            : Constant
Bit rate                                 : 640 kb/s
Channel(s)                               : 6 channels
Channel layout                           : L R C LFE Ls Rs
Sampling rate                            : 48.0 kHz
Frame rate                               : 31.250 FPS (1536 SPF)
Compression mode                         : Lossy
Stream size                              : 413 MiB (14%)
Title                                    : English DD+ 5.1 640Kbps ~ TombDoc
Language                                 : English
Service kind                             : Complete Main
Default                                  : Yes
Forced                                   : Yes

Text
ID                                       : 3
Format                                   : UTF-8
Codec ID                                 : S_TEXT/UTF8
Codec ID/Info                            : UTF-8 Plain Text
Duration                                 : 1 h 29 min
Bit rate                                 : 75 b/s
Count of elements                        : 1908
Stream size                              : 49.9 KiB (0%)
Title                                    : Eng Sub
Language                                 : English
Default                                  : No
Forced                                   : No
Screenshots

Download – [Single File]

Home Alone 25th Anniversary Ultimate Collector’s Edition Collection (1990-2012) 1080p 10bit Org VCD Hindi ESub ~ TombDoc.rar – 16.69 GB

Password/Readme

Password & My Message