Fast Download Mirrors

Home Sweet Home Alone (2021) • Movie | 2160p.DSNP.WEB-DL.ENG-Multi.DD+5.1.DoVi.HEVC-Telly [15.8GB]

Home Sweet Home Alone (2021)
Home Sweet Home Alone Action, Comedy, Family | November 12, 2021 (United States) Summary: A married couple tries to steal back a valuable heirloom from a troublesome kid.
Countries: United StatesLanguages: English

After being left at home by himself for the holidays, 10-year-old Max Mercer must work to defend his home from a married couple who tries to steal back a valuable heirloom.

Mirrors: MultiUp, Gdrive[GDTOT], 1fichier, GDrive Index
Format: MKV
Credits: Telly

Download

Complete name                            : Home.Sweet.Home.Alone.2021.2160p.DSNP.WEB-DL.HIN-Multi.DD+5.1.DoVi.HEVC-Telly.mkv
Format                                   : Matroska
Format version                           : Version 4
File size                                : 15.8 GiB
Duration                                 : 1 h 33 min
Overall bit rate                         : 24.3 Mb/s
Movie name                               : Telly
Encoded date                             : UTC 2021-11-11 19:12:58
Writing application                      : mkvmerge v62.0.0 ('Apollo') 64-bit
Writing library                          : libebml v1.4.2 + libmatroska v1.6.4

Video
ID                                       : 1
Format                                   : HEVC
Format/Info                              : High Efficiency Video Coding
Format profile                           : Main 10@L5.2@Main
Codec ID                                 : V_MPEGH/ISO/HEVC
Duration                                 : 1 h 33 min
Bit rate                                 : 22.7 Mb/s
Width                                    : 3 840 pixels
Height                                   : 2 160 pixels
Display aspect ratio                     : 16:9
Frame rate mode                          : Constant
Frame rate                               : 24.000 FPS
Color space                              : YUV
Chroma subsampling                       : 4:2:0 (Type 0)
Bit depth                                : 10 bits
Bits/(Pixel*Frame)                       : 0.114
Stream size                              : 14.8 GiB (94%)
Default                                  : Yes
Forced                                   : No
Color range                              : Full

Audio #1
ID                                       : 2
Format                                   : E-AC-3
Format/Info                              : Enhanced AC-3
Commercial name                          : Dolby Digital Plus
Codec ID                                 : A_EAC3
Duration                                 : 1 h 33 min
Bit rate mode                            : Constant
Bit rate                                 : 192 kb/s
Channel(s)                               : 6 channels
Channel layout                           : L R C LFE Ls Rs
Sampling rate                            : 48.0 kHz
Frame rate                               : 31.250 FPS (1536 SPF)
Compression mode                         : Lossy
Stream size                              : 128 MiB (1%)
Language                                 : Hindi
Service kind                             : Complete Main
Default                                  : Yes
Forced                                   : Yes

Audio #2
ID                                       : 3
Format                                   : E-AC-3
Format/Info                              : Enhanced AC-3
Commercial name                          : Dolby Digital Plus
Codec ID                                 : A_EAC3
Duration                                 : 1 h 33 min
Bit rate mode                            : Constant
Bit rate                                 : 192 kb/s
Channel(s)                               : 6 channels
Channel layout                           : L R C LFE Ls Rs
Sampling rate                            : 48.0 kHz
Frame rate                               : 31.250 FPS (1536 SPF)
Compression mode                         : Lossy
Stream size                              : 128 MiB (1%)
Language                                 : English
Service kind                             : Complete Main
Default                                  : Yes
Forced                                   : No

Audio #3
ID                                       : 4
Format                                   : E-AC-3
Format/Info                              : Enhanced AC-3
Commercial name                          : Dolby Digital Plus
Codec ID                                 : A_EAC3
Duration                                 : 1 h 33 min
Bit rate mode                            : Constant
Bit rate                                 : 192 kb/s
Channel(s)                               : 6 channels
Channel layout                           : L R C LFE Ls Rs
Sampling rate                            : 48.0 kHz
Frame rate                               : 31.250 FPS (1536 SPF)
Compression mode                         : Lossy
Stream size                              : 128 MiB (1%)
Language                                 : Thai
Service kind                             : Complete Main
Default                                  : Yes
Forced                                   : No

Audio #4
ID                                       : 5
Format                                   : E-AC-3
Format/Info                              : Enhanced AC-3
Commercial name                          : Dolby Digital Plus
Codec ID                                 : A_EAC3
Duration                                 : 1 h 33 min
Bit rate mode                            : Constant
Bit rate                                 : 192 kb/s
Channel(s)                               : 6 channels
Channel layout                           : L R C LFE Ls Rs
Sampling rate                            : 48.0 kHz
Frame rate                               : 31.250 FPS (1536 SPF)
Compression mode                         : Lossy
Stream size                              : 128 MiB (1%)
Language                                 : Malay
Service kind                             : Complete Main
Default                                  : Yes
Forced                                   : No

Audio #5
ID                                       : 6
Format                                   : E-AC-3
Format/Info                              : Enhanced AC-3
Commercial name                          : Dolby Digital Plus
Codec ID                                 : A_EAC3
Duration                                 : 1 h 33 min
Bit rate mode                            : Constant
Bit rate                                 : 192 kb/s
Channel(s)                               : 6 channels
Channel layout                           : L R C LFE Ls Rs
Sampling rate                            : 48.0 kHz
Frame rate                               : 31.250 FPS (1536 SPF)
Compression mode                         : Lossy
Stream size                              : 128 MiB (1%)
Language                                 : Indonesian
Service kind                             : Complete Main
Default                                  : Yes
Forced                                   : No

Audio #6
ID                                       : 7
Format                                   : E-AC-3
Format/Info                              : Enhanced AC-3
Commercial name                          : Dolby Digital Plus
Codec ID                                 : A_EAC3
Duration                                 : 1 h 33 min
Bit rate mode                            : Constant
Bit rate                                 : 192 kb/s
Channel(s)                               : 6 channels
Channel layout                           : L R C LFE Ls Rs
Sampling rate                            : 48.0 kHz
Frame rate                               : 31.250 FPS (1536 SPF)
Compression mode                         : Lossy
Stream size                              : 128 MiB (1%)
Language                                 : Tamil
Service kind                             : Complete Main
Default                                  : Yes
Forced                                   : No

Audio #7
ID                                       : 8
Format                                   : E-AC-3
Format/Info                              : Enhanced AC-3
Commercial name                          : Dolby Digital Plus
Codec ID                                 : A_EAC3
Duration                                 : 1 h 33 min
Bit rate mode                            : Constant
Bit rate                                 : 192 kb/s
Channel(s)                               : 6 channels
Channel layout                           : L R C LFE Ls Rs
Sampling rate                            : 48.0 kHz
Frame rate                               : 31.250 FPS (1536 SPF)
Compression mode                         : Lossy
Stream size                              : 128 MiB (1%)
Language                                 : Malayalam
Service kind                             : Complete Main
Default                                  : Yes
Forced                                   : No

Audio #8
ID                                       : 9
Format                                   : E-AC-3
Format/Info                              : Enhanced AC-3
Commercial name                          : Dolby Digital Plus
Codec ID                                 : A_EAC3
Duration                                 : 1 h 33 min
Bit rate mode                            : Constant
Bit rate                                 : 192 kb/s
Channel(s)                               : 6 channels
Channel layout                           : L R C LFE Ls Rs
Sampling rate                            : 48.0 kHz
Frame rate                               : 31.250 FPS (1536 SPF)
Compression mode                         : Lossy
Stream size                              : 128 MiB (1%)
Language                                 : Telugu
Service kind                             : Complete Main
Default                                  : Yes
Forced                                   : No

Text #1
ID                                       : 10
Format                                   : UTF-8
Codec ID                                 : S_TEXT/UTF8
Codec ID/Info                            : UTF-8 Plain Text
Duration                                 : 1 h 24 min
Bit rate                                 : 80 b/s
Count of elements                        : 1569
Stream size                              : 49.8 KiB (0%)
Language                                 : English
Default                                  : No
Forced                                   : No

Text #2
ID                                       : 11
Format                                   : UTF-8
Codec ID                                 : S_TEXT/UTF8
Codec ID/Info                            : UTF-8 Plain Text
Duration                                 : 1 h 32 min
Bit rate                                 : 58 b/s
Count of elements                        : 1271
Stream size                              : 39.5 KiB (0%)
Language                                 : Malay
Default                                  : No
Forced                                   : No

Text #3
ID                                       : 12
Format                                   : UTF-8
Codec ID                                 : S_TEXT/UTF8
Codec ID/Info                            : UTF-8 Plain Text
Duration                                 : 1 h 32 min
Bit rate                                 : 143 b/s
Count of elements                        : 1282
Stream size                              : 97.5 KiB (0%)
Language                                 : Thai
Default                                  : No
Forced                                   : No

Text #4
ID                                       : 13
Format                                   : UTF-8
Codec ID                                 : S_TEXT/UTF8
Codec ID/Info                            : UTF-8 Plain Text
Duration                                 : 1 h 32 min
Bit rate                                 : 57 b/s
Count of elements                        : 1266
Stream size                              : 38.8 KiB (0%)
Language                                 : Indonesian
Default                                  : No
Forced                                   : No

Readme/Password

Password & My Message