Fast Download Mirrors

House of Gucci • Movie | 1080p.BluRay.REMUX.AVC.DTS-HD.MA.7.1-PiRaTeS [35.35 GB]

House of Gucci Crime, Drama | November 24, 2021 (United States) Summary: When Patrizia Reggiani, an outsider from humble beginnings, marries into the Gucci family, her unbridled ambition begins to unravel their legacy and triggers a reckless spiral of betrayal, d... Read all
Countries: United States, CanadaLanguages: English, Italian, Arabic, French, Japanese

When Patrizia Reggiani, an outsider from humble beginnings, marries into the Gucci family, her unbridled ambition begins to unravel the family legacy and triggers a reckless spiral of betrayal, decadence, revenge, and ultimately…murder.

Mirrors: GDrive [Gadrive, GDToT, Index, Sharer], MultiUp
Format: MKV
Credits: PiRaTeS

Download

General
Unique ID                                : 161164319317272775385268265412539483972 (0x793F1E6D371971FF1343427077B48744)
Complete name                            : House.of.Gucci.2021.1080p.BluRay.REMUX.AVC.DTS-HD.MA.7.1-PiRaTeS.mkv
Format                                   : Matroska
Format version                           : Version 2
File size                                : 35.4 GiB
Duration                                 : 2 h 37 min
Overall bit rate mode                    : Variable
Overall bit rate                         : 32.1 Mb/s
Encoded date                             : UTC 2022-02-12 15:58:53
Writing application                      : MakeMKV v1.16.5 linux(x64-release)
Writing library                          : libmakemkv v1.16.5 (1.3.10/1.5.2) x86_64-linux-gnu

Video
ID                                       : 1
ID in the original source medium         : 4113 (0x1011)
Format                                   : AVC
Format/Info                              : Advanced Video Codec
Format profile                           : High@L4.1
Format settings                          : CABAC / 2 Ref Frames
Format settings, CABAC                   : Yes
Format settings, Reference frames        : 2 frames
Codec ID                                 : V_MPEG4/ISO/AVC
Duration                                 : 2 h 37 min
Bit rate mode                            : Variable
Bit rate                                 : 27.8 Mb/s
Width                                    : 1 920 pixels
Height                                   : 1 080 pixels
Display aspect ratio                     : 16:9
Frame rate mode                          : Constant
Frame rate                               : 23.976 (24000/1001) FPS
Color space                              : YUV
Chroma subsampling                       : 4:2:0
Bit depth                                : 8 bits
Scan type                                : Progressive
Bits/(Pixel*Frame)                       : 0.560
Stream size                              : 30.7 GiB (87%)
Language                                 : English
Default                                  : No
Forced                                   : No
Original source medium                   : Blu-ray

Audio
ID                                       : 2
ID in the original source medium         : 4352 (0x1100)
Format                                   : DTS XLL
Format/Info                              : Digital Theater Systems
Commercial name                          : DTS-HD Master Audio
Codec ID                                 : A_DTS
Duration                                 : 2 h 37 min
Bit rate mode                            : Variable
Bit rate                                 : 4 133 kb/s
Channel(s)                               : 8 channels
Channel layout                           : C L R LFE Lb Rb Lss Rss
Sampling rate                            : 48.0 kHz
Frame rate                               : 93.750 FPS (512 SPF)
Bit depth                                : 24 bits
Compression mode                         : Lossless
Stream size                              : 4.56 GiB (13%)
Language                                 : English
Default                                  : Yes
Forced                                   : No
Original source medium                   : Blu-ray

Text #1
ID                                       : 3
ID in the original source medium         : 4608 (0x1200)
Format                                   : PGS
Codec ID                                 : S_HDMV/PGS
Codec ID/Info                            : Picture based subtitle format used on BDs/HD-DVDs
Duration                                 : 2 h 35 min
Bit rate                                 : 37.3 kb/s
Count of elements                        : 4348
Stream size                              : 41.4 MiB (0%)
Language                                 : English
Default                                  : No
Forced                                   : No
Original source medium                   : Blu-ray

Text #2
ID                                       : 5
ID in the original source medium         : 4609 (0x1201)
Format                                   : PGS
Codec ID                                 : S_HDMV/PGS
Codec ID/Info                            : Picture based subtitle format used on BDs/HD-DVDs
Duration                                 : 2 h 36 min
Bit rate                                 : 31.3 kb/s
Count of elements                        : 3836
Stream size                              : 35.0 MiB (0%)
Language                                 : Spanish
Default                                  : No
Forced                                   : No
Original source medium                   : Blu-ray

Text #3
ID                                       : 6
ID in the original source medium         : 4610 (0x1202)
Format                                   : PGS
Codec ID                                 : S_HDMV/PGS
Codec ID/Info                            : Picture based subtitle format used on BDs/HD-DVDs
Duration                                 : 2 h 36 min
Bit rate                                 : 32.3 kb/s
Count of elements                        : 3756
Stream size                              : 36.2 MiB (0%)
Language                                 : French
Default                                  : No
Forced                                   : No
Original source medium                   : Blu-ray

Menu
00:00:00.000                             : en:Chapter 01
00:08:09.447                             : en:Chapter 02
00:17:39.558                             : en:Chapter 03
00:25:56.137                             : en:Chapter 04
00:33:37.515                             : en:Chapter 05
00:41:24.148                             : en:Chapter 06
00:47:39.648                             : en:Chapter 07
00:57:16.224                             : en:Chapter 08
01:03:58.251                             : en:Chapter 09
01:13:00.417                             : en:Chapter 10
01:19:25.886                             : en:Chapter 11
01:25:14.901                             : en:Chapter 12
01:33:41.616                             : en:Chapter 13
01:41:35.964                             : en:Chapter 14
01:48:31.004                             : en:Chapter 15
01:58:23.846                             : en:Chapter 16
02:06:06.225                             : en:Chapter 17
02:14:20.510                             : en:Chapter 18
02:22:02.639                             : en:Chapter 19
02:29:28.292                             : en:Chapter 20

Readme/Password

Password & My Message