Fast Download Mirrors

Inside Job (2021-) • TVSeries | S01.1080p.NF.WEB-DL.DDP5.1.x264-AGLET

Inside Job (2021-)
Inside Job 1800min | Animation, Comedy, Fantasy, Sci-Fi | October 22, 2021 (United States) Summary: For employees of the Deep State, conspiracies aren't just theories they're fact. And keeping them a secret is a full-time job.
Countries: United StatesLanguages: English

For employees of the Deep State, conspiracies aren’t just theories — they’re fact. And keeping them a secret is a full-time job.

Mirrors: MultiUp, SendCM, MirrorAce, Google Drive Index, GDTOT, Sharer.pw
Format: MKV
Credits: AGLET
Seasons-Season 1 Complete

Download

SHARER.PW:
https://sharer.pw/file/0WdXiEpLGZRl
https://sharer.pw/file/3GnQIgyOucTT
https://sharer.pw/file/M0r8V3scETWJ
https://sharer.pw/file/QVhsS67jHb3p
https://sharer.pw/file/Uhqw-YDSYLcZ
https://sharer.pw/file/lMsLGl17AOyu
https://sharer.pw/file/lX_2iFrKRvZ7
https://sharer.pw/file/lhAu8ynjtBGK
https://sharer.pw/file/wPYN0IgWufkZ
https://sharer.pw/file/wlJ_4bv0XK16

GDTOT:
https://new.gdtot.org/file/1684689697
https://new.gdtot.org/file/1815581749
https://new.gdtot.org/file/1847651979
https://new.gdtot.org/file/1874534515
https://new.gdtot.org/file/1899338743
https://new.gdtot.org/file/1916303095
https://new.gdtot.org/file/2055196061
https://new.gdtot.org/file/2132764901
https://new.gdtot.org/file/2149446245
https://new.gdtot.org/file/2506146445

GDRIVE INDEX:
https://crackhub213.the-ambassador1.workers.dev/0:/Inside.Job.S01.1080p.NF.WEB-DL.DDP5.1.x264-AGLET/

SENDCM:
https://send.cm/d/5VIM
https://send.cm/d/5VIE
https://send.cm/d/5VIH
https://send.cm/d/5VIG
https://send.cm/d/5VIL
https://send.cm/d/5VIF
https://send.cm/d/5VIJ
https://send.cm/d/5VIK
https://send.cm/d/5VII
https://send.cm/d/5VIN

MULTIUP:
https://multiup.org/5c4529d54a7df60f6b4540e841cea2a0
https://multiup.org/8b814e7ed10cc8f87b836571e63ae150
https://multiup.org/f70c012c5d0af221026b9f0c7a5e0bc9
https://multiup.org/474f7716293e2c56850a0617e28d1315
https://multiup.org/b2072e6ba655adaed21febc26190ef39
https://multiup.org/0b1119c3093b6115431c3c0875a0eb49
https://multiup.org/b5d1d1c7e9084e7e5b9c7a3b6c5268e1
https://multiup.org/bca7a15f3cc4ce13195a5f65229ec98a
https://multiup.org/400447dfcf16bb453295082306afc0e1
https://multiup.org/e4a0ed0ec84a3f8df78032a3117264b6

MIRRORACE:
https://mirrorace.org/m/3Lyna
https://mirrorace.org/m/3Lynb
https://mirrorace.org/m/3Lync
https://mirrorace.org/m/3Lynd
https://mirrorace.org/m/3Lyne
https://mirrorace.org/m/3Lynf
https://mirrorace.org/m/3Lyng
https://mirrorace.org/m/3Lynh
https://mirrorace.org/m/1JG0k
https://mirrorace.org/m/1JG0l
General
Unique ID                                : 70620208228907548571301755844312907497 (0x3520F5163EE21C96B17918B26AB73EE9)
Complete name                            : Inside.Job.S01E01.Unpresidented.1080p.NF.WEB-DL.DDP5.1.x264-AGLET.mkv
Format                                   : Matroska
Format version                           : Version 4
File size                                : 1.17 GiB
Duration                                 : 31 min 18 s
Overall bit rate mode                    : Variable
Overall bit rate                         : 5 335 kb/s
Writing application                      : mkvmerge v62.0.0 ('Apollo') 64-bit
Writing library                          : libebml v1.4.2 + libmatroska v1.6.4

Video
ID                                       : 1
Format                                   : AVC
Format/Info                              : Advanced Video Codec
Format profile                           : Main@L4
Format settings                          : CABAC / 3 Ref Frames
Format settings, CABAC                   : Yes
Format settings, Reference frames        : 3 frames
Codec ID                                 : V_MPEG4/ISO/AVC
Duration                                 : 31 min 18 s
Bit rate mode                            : Variable
Bit rate                                 : 4 505 kb/s
Maximum bit rate                         : 9 285 kb/s
Width                                    : 1 920 pixels
Height                                   : 1 080 pixels
Display aspect ratio                     : 16:9
Frame rate mode                          : Constant
Frame rate                               : 24.000 FPS
Color space                              : YUV
Chroma subsampling                       : 4:2:0
Bit depth                                : 8 bits
Scan type                                : Progressive
Bits/(Pixel*Frame)                       : 0.091
Stream size                              : 1.03 GiB (88%)
Writing library                          : x264 core 148 r2724 dbe0335
Encoding settings                        : cabac=1 / ref=3 / deblock=1:0:0 / analyse=0x1:0x111 / me=umh / subme=10 / psy=1 / psy_rd=1.00:0.00 / mixed_ref=1 / me_range=24 / chroma_me=1 / trellis=2 / 8x8dct=0 / cqm=0 / deadzone=21,11 / fast_pskip=1 / chroma_qp_offset=-2 / threads=8 / lookahead_threads=1 / sliced_threads=0 / nr=0 / decimate=1 / interlaced=0 / bluray_compat=0 / stitchable=1 / constrained_intra=0 / bframes=2 / b_pyramid=0 / b_adapt=2 / b_bias=0 / direct=3 / weightb=1 / open_gop=0 / weightp=2 / keyint=250 / keyint_min=24 / scenecut=0 / intra_refresh=0 / rc_lookahead=48 / rc=2pass / mbtree=1 / bitrate=4505 / ratetol=1.0 / qcomp=0.50 / qpmin=6 / qpmax=51 / qpstep=4 / cplxblur=20.0 / qblur=0.5 / vbv_maxrate=9285 / vbv_bufsize=12380 / nal_hrd=vbr / filler=0 / ip_ratio=1.40 / aq=1:1.00
Default                                  : Yes
Forced                                   : No

Audio
ID                                       : 2
Format                                   : E-AC-3
Format/Info                              : Enhanced AC-3
Commercial name                          : Dolby Digital Plus
Codec ID                                 : A_EAC3
Duration                                 : 31 min 18 s
Bit rate mode                            : Constant
Bit rate                                 : 640 kb/s
Channel(s)                               : 6 channels
Channel layout                           : L R C LFE Ls Rs
Sampling rate                            : 48.0 kHz
Frame rate                               : 31.250 FPS (1536 SPF)
Compression mode                         : Lossy
Stream size                              : 143 MiB (12%)
Language                                 : English
Service kind                             : Complete Main
Default                                  : Yes
Forced                                   : No

Text #1
ID                                       : 3
Format                                   : UTF-8
Codec ID                                 : S_TEXT/UTF8
Codec ID/Info                            : UTF-8 Plain Text
Duration                                 : 28 min 56 s
Bit rate                                 : 103 b/s
Count of elements                        : 581
Stream size                              : 22.0 KiB (0%)
Language                                 : English
Default                                  : No
Forced                                   : No

Text #2
ID                                       : 4
Format                                   : UTF-8
Codec ID                                 : S_TEXT/UTF8
Codec ID/Info                            : UTF-8 Plain Text
Duration                                 : 29 min 9 s
Bit rate                                 : 120 b/s
Count of elements                        : 667
Stream size                              : 25.7 KiB (0%)
Title                                    : SDH
Language                                 : English
Default                                  : No
Forced                                   : No

Text #3
ID                                       : 5
Format                                   : UTF-8
Codec ID                                 : S_TEXT/UTF8
Codec ID/Info                            : UTF-8 Plain Text
Duration                                 : 29 min 45 s
Bit rate                                 : 185 b/s
Count of elements                        : 579
Stream size                              : 40.4 KiB (0%)
Language                                 : Arabic
Default                                  : No
Forced                                   : No

Text #4
ID                                       : 6
Format                                   : UTF-8
Codec ID                                 : S_TEXT/UTF8
Codec ID/Info                            : UTF-8 Plain Text
Duration                                 : 29 min 45 s
Bit rate                                 : 92 b/s
Count of elements                        : 549
Stream size                              : 20.1 KiB (0%)
Language                                 : Czech
Default                                  : No
Forced                                   : No

Text #5
ID                                       : 7
Format                                   : UTF-8
Codec ID                                 : S_TEXT/UTF8
Codec ID/Info                            : UTF-8 Plain Text
Duration                                 : 29 min 45 s
Bit rate                                 : 92 b/s
Count of elements                        : 521
Stream size                              : 20.2 KiB (0%)
Language                                 : Danish
Default                                  : No
Forced                                   : No

Text #6
ID                                       : 8
Format                                   : UTF-8
Codec ID                                 : S_TEXT/UTF8
Codec ID/Info                            : UTF-8 Plain Text
Duration                                 : 29 min 45 s
Bit rate                                 : 93 b/s
Count of elements                        : 540
Stream size                              : 20.4 KiB (0%)
Language                                 : German
Default                                  : No
Forced                                   : No

Text #7
ID                                       : 9
Format                                   : UTF-8
Codec ID                                 : S_TEXT/UTF8
Codec ID/Info                            : UTF-8 Plain Text
Duration                                 : 29 min 43 s
Bit rate                                 : 165 b/s
Count of elements                        : 546
Stream size                              : 36.0 KiB (0%)
Language                                 : Greek
Default                                  : No
Forced                                   : No

Text #8
ID                                       : 10
Format                                   : UTF-8
Codec ID                                 : S_TEXT/UTF8
Codec ID/Info                            : UTF-8 Plain Text
Duration                                 : 29 min 45 s
Bit rate                                 : 91 b/s
Count of elements                        : 586
Stream size                              : 20.0 KiB (0%)
Language                                 : Spanish
Default                                  : No
Forced                                   : No

Text #9
ID                                       : 11
Format                                   : UTF-8
Codec ID                                 : S_TEXT/UTF8
Codec ID/Info                            : UTF-8 Plain Text
Duration                                 : 29 min 43 s
Bit rate                                 : 91 b/s
Count of elements                        : 541
Stream size                              : 20.0 KiB (0%)
Title                                    : European
Language                                 : Spanish
Default                                  : No
Forced                                   : No

Text #10
ID                                       : 12
Format                                   : UTF-8
Codec ID                                 : S_TEXT/UTF8
Codec ID/Info                            : UTF-8 Plain Text
Duration                                 : 29 min 45 s
Bit rate                                 : 95 b/s
Count of elements                        : 528
Stream size                              : 20.8 KiB (0%)
Language                                 : Finnish
Default                                  : No
Forced                                   : No

Text #11
ID                                       : 13
Format                                   : UTF-8
Codec ID                                 : S_TEXT/UTF8
Codec ID/Info                            : UTF-8 Plain Text
Duration                                 : 29 min 44 s
Bit rate                                 : 90 b/s
Count of elements                        : 564
Stream size                              : 19.7 KiB (0%)
Language                                 : French
Default                                  : No
Forced                                   : No

Text #12
ID                                       : 14
Format                                   : UTF-8
Codec ID                                 : S_TEXT/UTF8
Codec ID/Info                            : UTF-8 Plain Text
Duration                                 : 29 min 42 s
Bit rate                                 : 159 b/s
Count of elements                        : 542
Stream size                              : 34.7 KiB (0%)
Language                                 : Hebrew
Default                                  : No
Forced                                   : No

Text #13
ID                                       : 15
Format                                   : UTF-8
Codec ID                                 : S_TEXT/UTF8
Codec ID/Info                            : UTF-8 Plain Text
Duration                                 : 29 min 45 s
Bit rate                                 : 88 b/s
Count of elements                        : 549
Stream size                              : 19.4 KiB (0%)
Language                                 : Croatian
Default                                  : No
Forced                                   : No

Text #14
ID                                       : 16
Format                                   : UTF-8
Codec ID                                 : S_TEXT/UTF8
Codec ID/Info                            : UTF-8 Plain Text
Duration                                 : 29 min 45 s
Bit rate                                 : 90 b/s
Count of elements                        : 538
Stream size                              : 19.8 KiB (0%)
Language                                 : Hungarian
Default                                  : No
Forced                                   : No

Text #15
ID                                       : 17
Format                                   : UTF-8
Codec ID                                 : S_TEXT/UTF8
Codec ID/Info                            : UTF-8 Plain Text
Duration                                 : 29 min 43 s
Bit rate                                 : 88 b/s
Count of elements                        : 562
Stream size                              : 19.2 KiB (0%)
Language                                 : Indonesian
Default                                  : No
Forced                                   : No

Text #16
ID                                       : 18
Format                                   : UTF-8
Codec ID                                 : S_TEXT/UTF8
Codec ID/Info                            : UTF-8 Plain Text
Duration                                 : 29 min 45 s
Bit rate                                 : 104 b/s
Count of elements                        : 589
Stream size                              : 22.7 KiB (0%)
Language                                 : Italian
Default                                  : No
Forced                                   : No

Text #17
ID                                       : 19
Format                                   : UTF-8
Codec ID                                 : S_TEXT/UTF8
Codec ID/Info                            : UTF-8 Plain Text
Duration                                 : 29 min 11 s
Bit rate                                 : 115 b/s
Count of elements                        : 629
Stream size                              : 24.8 KiB (0%)
Language                                 : Japanese
Default                                  : No
Forced                                   : No

Text #18
ID                                       : 20
Format                                   : UTF-8
Codec ID                                 : S_TEXT/UTF8
Codec ID/Info                            : UTF-8 Plain Text
Duration                                 : 29 min 43 s
Bit rate                                 : 130 b/s
Count of elements                        : 604
Stream size                              : 28.3 KiB (0%)
Language                                 : Korean
Default                                  : No
Forced                                   : No

Text #19
ID                                       : 21
Format                                   : UTF-8
Codec ID                                 : S_TEXT/UTF8
Codec ID/Info                            : UTF-8 Plain Text
Duration                                 : 29 min 45 s
Bit rate                                 : 97 b/s
Count of elements                        : 581
Stream size                              : 21.2 KiB (0%)
Language                                 : Malay
Default                                  : No
Forced                                   : No

Text #20
ID                                       : 22
Format                                   : UTF-8
Codec ID                                 : S_TEXT/UTF8
Codec ID/Info                            : UTF-8 Plain Text
Duration                                 : 29 min 45 s
Bit rate                                 : 90 b/s
Count of elements                        : 536
Stream size                              : 19.8 KiB (0%)
Language                                 : Norwegian Bokmal
Default                                  : No
Forced                                   : No

Text #21
ID                                       : 23
Format                                   : UTF-8
Codec ID                                 : S_TEXT/UTF8
Codec ID/Info                            : UTF-8 Plain Text
Duration                                 : 29 min 45 s
Bit rate                                 : 87 b/s
Count of elements                        : 463
Stream size                              : 19.0 KiB (0%)
Language                                 : Dutch
Default                                  : No
Forced                                   : No

Text #22
ID                                       : 24
Format                                   : UTF-8
Codec ID                                 : S_TEXT/UTF8
Codec ID/Info                            : UTF-8 Plain Text
Duration                                 : 29 min 45 s
Bit rate                                 : 89 b/s
Count of elements                        : 575
Stream size                              : 19.6 KiB (0%)
Language                                 : Polish
Default                                  : No
Forced                                   : No

Text #23
ID                                       : 25
Format                                   : UTF-8
Codec ID                                 : S_TEXT/UTF8
Codec ID/Info                            : UTF-8 Plain Text
Duration                                 : 29 min 45 s
Bit rate                                 : 97 b/s
Count of elements                        : 531
Stream size                              : 21.3 KiB (0%)
Language                                 : Portuguese
Default                                  : No
Forced                                   : No

Text #24
ID                                       : 26
Format                                   : UTF-8
Codec ID                                 : S_TEXT/UTF8
Codec ID/Info                            : UTF-8 Plain Text
Duration                                 : 29 min 45 s
Bit rate                                 : 94 b/s
Count of elements                        : 573
Stream size                              : 20.5 KiB (0%)
Title                                    : Brazilian
Language                                 : Portuguese
Default                                  : No
Forced                                   : No

Text #25
ID                                       : 27
Format                                   : UTF-8
Codec ID                                 : S_TEXT/UTF8
Codec ID/Info                            : UTF-8 Plain Text
Duration                                 : 29 min 11 s
Bit rate                                 : 102 b/s
Count of elements                        : 510
Stream size                              : 22.0 KiB (0%)
Language                                 : Romanian
Default                                  : No
Forced                                   : No

Text #26
ID                                       : 28
Format                                   : UTF-8
Codec ID                                 : S_TEXT/UTF8
Codec ID/Info                            : UTF-8 Plain Text
Duration                                 : 29 min 45 s
Bit rate                                 : 158 b/s
Count of elements                        : 557
Stream size                              : 34.5 KiB (0%)
Language                                 : Russian
Default                                  : No
Forced                                   : No

Text #27
ID                                       : 29
Format                                   : UTF-8
Codec ID                                 : S_TEXT/UTF8
Codec ID/Info                            : UTF-8 Plain Text
Duration                                 : 29 min 45 s
Bit rate                                 : 92 b/s
Count of elements                        : 498
Stream size                              : 20.2 KiB (0%)
Language                                 : Swedish
Default                                  : No
Forced                                   : No

Text #28
ID                                       : 30
Format                                   : UTF-8
Codec ID                                 : S_TEXT/UTF8
Codec ID/Info                            : UTF-8 Plain Text
Duration                                 : 29 min 45 s
Bit rate                                 : 259 b/s
Count of elements                        : 592
Stream size                              : 56.6 KiB (0%)
Language                                 : Thai
Default                                  : No
Forced                                   : No

Text #29
ID                                       : 31
Format                                   : UTF-8
Codec ID                                 : S_TEXT/UTF8
Codec ID/Info                            : UTF-8 Plain Text
Duration                                 : 29 min 45 s
Bit rate                                 : 100 b/s
Count of elements                        : 569
Stream size                              : 21.9 KiB (0%)
Language                                 : Turkish
Default                                  : No
Forced                                   : No

Text #30
ID                                       : 32
Format                                   : UTF-8
Codec ID                                 : S_TEXT/UTF8
Codec ID/Info                            : UTF-8 Plain Text
Duration                                 : 29 min 17 s
Bit rate                                 : 162 b/s
Count of elements                        : 527
Stream size                              : 34.8 KiB (0%)
Language                                 : Ukrainian
Default                                  : No
Forced                                   : No

Text #31
ID                                       : 33
Format                                   : UTF-8
Codec ID                                 : S_TEXT/UTF8
Codec ID/Info                            : UTF-8 Plain Text
Duration                                 : 29 min 45 s
Bit rate                                 : 128 b/s
Count of elements                        : 591
Stream size                              : 27.9 KiB (0%)
Language                                 : Vietnamese
Default                                  : No
Forced                                   : No

Text #32
ID                                       : 34
Format                                   : UTF-8
Codec ID                                 : S_TEXT/UTF8
Codec ID/Info                            : UTF-8 Plain Text
Duration                                 : 29 min 45 s
Bit rate                                 : 112 b/s
Count of elements                        : 592
Stream size                              : 24.6 KiB (0%)
Title                                    : Simplified
Language                                 : Chinese
Default                                  : No
Forced                                   : No

Text #33
ID                                       : 35
Format                                   : UTF-8
Codec ID                                 : S_TEXT/UTF8
Codec ID/Info                            : UTF-8 Plain Text
Duration                                 : 29 min 43 s
Bit rate                                 : 100 b/s
Count of elements                        : 590
Stream size                              : 21.8 KiB (0%)
Title                                    : Traditional
Language                                 : Chinese
Default                                  : No
Forced                                   : No


Readme/Password

Password & My Message

Screenshots