Fast Download Mirrors

Kelly’s Heroes (1970) • Movie | BluRay.1080p.DTS-HD.MA.5.1.VC-1.REMUX-FraMeSToR [27.34 GB]

Kelly's Heroes Adventure, Comedy, War | June 23, 1970 (United States) Summary: A group of U.S. soldiers sneaks across enemy lines to get their hands on a secret stash of Nazi treasure.
Countries: United States, YugoslaviaLanguages: English, French, German

A misfit group of World War II American soldiers goes AWOL to rob a bank behind German lines.

Mirrors: GDrive [Gadrive, GDToT, Index, Sharer], MultiUp
Format: MKV
Credits: FraMeSToR

Download

General
Unique ID : 181927990062932233965163614337395390482 (0x88DE0E6ED13D6AC9F91671F4EC30F812)
Complete name : Kelly's.Heroes.1970.BluRay.1080p.DTS-HD.MA.5.1.VC-1.REMUX-FraMeSToR.mkv
Format : Matroska
Format version : Version 4
File size : 27.3 GiB
Duration : 2 h 23 min
Overall bit rate mode : Variable
Overall bit rate : 27.3 Mb/s
Movie name : Kelly's Heroes (1970)
Encoded date : UTC 2020-05-25 17:31:54
Writing application : mkvmerge v46.0.0 ('No Deeper Escape') 64-bit
Writing library : libebml v1.3.10 + libmatroska v1.5.2
IMDB : tt0065938
TMDB : movie/11589

Video
ID : 1
Format : VC-1
Format profile : Advanced@L3
Codec ID : V_MS/VFW/FOURCC / WVC1
Codec ID/Hint : Microsoft
Duration : 2 h 23 min
Bit rate : 23.0 Mb/s
Width : 1 920 pixels
Height : 1 080 pixels
Display aspect ratio : 16:9
Frame rate mode : Constant
Frame rate : 23.976 (24000/1001) FPS
Color space : YUV
Chroma subsampling : 4:2:0
Bit depth : 8 bits
Scan type : Progressive
Compression mode : Lossy
Bits/(Pixel*Frame) : 0.464
Stream size : 23.1 GiB (85%)
Default : Yes
Forced : No

Audio
ID : 2
Format : DTS XLL
Format/Info : Digital Theater Systems
Commercial name : DTS-HD Master Audio
Codec ID : A_DTS
Duration : 2 h 23 min
Bit rate mode : Variable
Bit rate : 3 885 kb/s
Channel(s) : 6 channels
Channel layout : C L R Ls Rs LFE
Sampling rate : 48.0 kHz
Frame rate : 93.750 FPS (512 SPF)
Bit depth : 24 bits
Compression mode : Lossless
Stream size : 3.89 GiB (14%)
Title : DTS-HD MA 5.1
Language : English
Default : Yes
Forced : No

Text #1
ID : 3
Format : PGS
Codec ID : S_HDMV/PGS
Codec ID/Info : Picture based subtitle format used on BDs/HD-DVDs
Duration : 2 h 23 min
Bit rate : 33.7 kb/s
Count of elements : 3196
Stream size : 34.5 MiB (0%)
Title : English (SDH)
Language : English
Default : No
Forced : No

Text #2
ID : 4
Format : PGS
Codec ID : S_HDMV/PGS
Codec ID/Info : Picture based subtitle format used on BDs/HD-DVDs
Duration : 2 h 22 min
Bit rate : 19.9 kb/s
Count of elements : 1956
Stream size : 20.2 MiB (0%)
Title : Danish
Language : Danish
Default : No
Forced : No

Text #3
ID : 5
Format : PGS
Codec ID : S_HDMV/PGS
Codec ID/Info : Picture based subtitle format used on BDs/HD-DVDs
Duration : 2 h 22 min
Bit rate : 28.3 kb/s
Count of elements : 2596
Stream size : 28.7 MiB (0%)
Title : Finnish
Language : Finnish
Default : No
Forced : No

Text #4
ID : 6
Format : PGS
Codec ID : S_HDMV/PGS
Codec ID/Info : Picture based subtitle format used on BDs/HD-DVDs
Duration : 2 h 22 min
Bit rate : 20.5 kb/s
Count of elements : 2410
Stream size : 20.9 MiB (0%)
Title : French
Language : French
Default : No
Forced : No

Text #5
ID : 7
Format : PGS
Codec ID : S_HDMV/PGS
Codec ID/Info : Picture based subtitle format used on BDs/HD-DVDs
Duration : 2 h 23 min
Bit rate : 30.9 kb/s
Count of elements : 3092
Stream size : 31.6 MiB (0%)
Title : German (SDH)
Language : German
Default : No
Forced : No

Text #6
ID : 8
Format : PGS
Codec ID : S_HDMV/PGS
Codec ID/Info : Picture based subtitle format used on BDs/HD-DVDs
Duration : 2 h 22 min
Bit rate : 28.9 kb/s
Count of elements : 2883
Stream size : 29.4 MiB (0%)
Title : Greek
Language : Greek
Default : No
Forced : No

Text #7
ID : 9
Format : PGS
Codec ID : S_HDMV/PGS
Codec ID/Info : Picture based subtitle format used on BDs/HD-DVDs
Duration : 2 h 23 min
Bit rate : 30.5 kb/s
Count of elements : 3194
Stream size : 31.2 MiB (0%)
Title : Italian (SDH)
Language : Italian
Default : No
Forced : No

Text #8
ID : 10
Format : PGS
Codec ID : S_HDMV/PGS
Codec ID/Info : Picture based subtitle format used on BDs/HD-DVDs
Duration : 2 h 16 min
Bit rate : 17.0 kb/s
Count of elements : 2375
Stream size : 16.6 MiB (0%)
Title : Japanese
Language : Japanese
Default : No
Forced : No

Text #9
ID : 11
Format : PGS
Codec ID : S_HDMV/PGS
Codec ID/Info : Picture based subtitle format used on BDs/HD-DVDs
Duration : 2 h 22 min
Bit rate : 21.2 kb/s
Count of elements : 2780
Stream size : 21.5 MiB (0%)
Title : Norwegian
Language : Norwegian
Default : No
Forced : No

Text #10
ID : 12
Format : PGS
Codec ID : S_HDMV/PGS
Codec ID/Info : Picture based subtitle format used on BDs/HD-DVDs
Duration : 2 h 22 min
Bit rate : 30.6 kb/s
Count of elements : 2696
Stream size : 31.1 MiB (0%)
Title : Portuguese (Iberian)
Language : Portuguese
Default : No
Forced : No

Text #11
ID : 13
Format : PGS
Codec ID : S_HDMV/PGS
Codec ID/Info : Picture based subtitle format used on BDs/HD-DVDs
Duration : 2 h 22 min
Bit rate : 28.1 kb/s
Count of elements : 2890
Stream size : 28.6 MiB (0%)
Title : Spanish (Castilian)
Language : Spanish
Default : No
Forced : No

Text #12
ID : 14
Format : PGS
Codec ID : S_HDMV/PGS
Codec ID/Info : Picture based subtitle format used on BDs/HD-DVDs
Duration : 2 h 22 min
Bit rate : 25.7 kb/s
Count of elements : 2722
Stream size : 26.1 MiB (0%)
Title : Spanish (Latin American)
Language : Spanish
Default : No
Forced : No

Text #13
ID : 15
Format : PGS
Codec ID : S_HDMV/PGS
Codec ID/Info : Picture based subtitle format used on BDs/HD-DVDs
Duration : 2 h 22 min
Bit rate : 17.2 kb/s
Count of elements : 1484
Stream size : 17.5 MiB (0%)
Title : Swedish
Language : Swedish
Default : No
Forced : No

Menu
00:00:00.000 : en:Credits on the Run (Burning Bridges)
00:04:31.167 : en:Tourist Information
00:08:46.534 : en:Getting Sociable
00:13:13.534 : en:Getting Activated
00:20:55.001 : en:propositioning Mulligan
00:23:16.501 : en:No Action
00:27:34.835 : en:Crapgame
00:30:44.536 : en:Oddball
00:32:36.003 : en:Secret Weapons
00:35:24.170 : en:Tight Little Unit's Plans
00:39:25.170 : en:No Hero Types
00:44:12.504 : en:Taking the Town
00:49:39.171 : en:Negative Waves
00:53:08.838 : en:Mismatch in the Making
00:57:38.505 : en:Bomber's Target
01:01:22.839 : en:Workin' on the Railroad
01:05:26.173 : en:A Bridge Too Few
01:09:41.541 : en:The Minefield
01:15:25.175 : en:Enemy Encounter
01:22:59.009 : en:A Circus
01:26:48.676 : en:Conversation in Code
01:31:42.343 : en:Back in the War (Burning Bridges)
01:34:15.677 : en:Oddball's Hour of Glory
01:38:46.011 : en:Revving Up a Plan
01:41:58.545 : en:Slipping Into Town
01:44:55.513 : en:Strategic Positions
01:49:13.680 : en:Ring That Bell
01:54:48.880 : en:Fire!
01:58:15.047 : en:Smelling Homesick
01:59:30.047 : en:Gun-Shy
02:01:09.681 : en:Crapgame Hit
02:03:23.848 : en:Business Is Business
02:05:24.382 : en:Showdown
02:11:28.016 : en:Golden Haul
02:14:03.850 : en:Cut and Run
02:18:06.551 : en:Heroes
02:20:26.519 : en:End Credits (Burning Bridges)

Readme/Password

Password & My Message