Fast Download Mirrors

King Richard (2021) • Movie | 1080p.BluRay.REMUX.AVC.Atmos-PiRaTeS [28.35 GB]

King Richard Biography, Drama, Sport | November 19, 2021 (United States) Summary: A look at how tennis superstars Venus and Serena Williams became who they are after the coaching from their father Richard Williams.
Countries: United StatesLanguages: English

The story of how Richard Williams served as a coach to his daughters Venus and Serena, who will soon become two of the most legendary tennis players in history.

Mirrors: GDrive [Gadrive, GDToT, Index, Sharer], MultiUp
Format: MKV
Credits: PiRaTeS

Download

General
Unique ID                                : 59488919530864658701242987612316209580 (0x2CC1262E967A666E6C769C3D310191AC)
Complete name                            : King.Richard.2021.1080p.BluRay.REMUX.AVC.Atmos-PiRaTeS.mkv
Format                                   : Matroska
Format version                           : Version 2
File size                                : 28.3 GiB
Duration                                 : 2 h 24 min
Overall bit rate mode                    : Variable
Overall bit rate                         : 28.1 Mb/s
Encoded date                             : UTC 2022-02-02 09:31:12
Writing application                      : MakeMKV v1.16.5 linux(x64-release)
Writing library                          : libmakemkv v1.16.5 (1.3.10/1.5.2) x86_64-linux-gnu

Video
ID                                       : 1
ID in the original source medium         : 4113 (0x1011)
Format                                   : AVC
Format/Info                              : Advanced Video Codec
Format profile                           : High@L4.1
Format settings                          : CABAC / 2 Ref Frames
Format settings, CABAC                   : Yes
Format settings, Reference frames        : 2 frames
Codec ID                                 : V_MPEG4/ISO/AVC
Duration                                 : 2 h 24 min
Bit rate mode                            : Variable
Bit rate                                 : 24.9 Mb/s
Width                                    : 1 920 pixels
Height                                   : 1 080 pixels
Display aspect ratio                     : 16:9
Frame rate mode                          : Constant
Frame rate                               : 23.976 (24000/1001) FPS
Color space                              : YUV
Chroma subsampling                       : 4:2:0
Bit depth                                : 8 bits
Scan type                                : Progressive
Bits/(Pixel*Frame)                       : 0.501
Stream size                              : 25.2 GiB (89%)
Language                                 : English
Default                                  : No
Forced                                   : No
Original source medium                   : Blu-ray

Audio
ID                                       : 2
ID in the original source medium         : 4352 (0x1100)
Format                                   : MLP FBA 16-ch
Format/Info                              : Meridian Lossless Packing FBA with 16-channel presentation
Commercial name                          : Dolby TrueHD with Dolby Atmos
Codec ID                                 : A_TRUEHD
Duration                                 : 2 h 24 min
Bit rate mode                            : Variable
Bit rate                                 : 2 838 kb/s
Maximum bit rate                         : 3 645 kb/s
Channel(s)                               : 8 channels
Channel layout                           : L R C LFE Ls Rs Lb Rb
Sampling rate                            : 48.0 kHz
Frame rate                               : 1 200.000 FPS (40 SPF)
Bit depth                                : 24 bits
Compression mode                         : Lossless
Stream size                              : 2.87 GiB (10%)
Language                                 : English
Default                                  : Yes
Forced                                   : No
Original source medium                   : Blu-ray
Number of dynamic objects                : 11
Bed channel count                        : 1 channel
Bed channel configuration                : LFE

Text #1
ID                                       : 3
ID in the original source medium         : 4608 (0x1200)
Format                                   : PGS
Codec ID                                 : S_HDMV/PGS
Codec ID/Info                            : Picture based subtitle format used on BDs/HD-DVDs
Duration                                 : 2 h 18 min
Bit rate                                 : 55.5 kb/s
Count of elements                        : 4724
Stream size                              : 55.1 MiB (0%)
Language                                 : English
Default                                  : No
Forced                                   : No
Original source medium                   : Blu-ray

Text #2
ID                                       : 5
ID in the original source medium         : 4609 (0x1201)
Format                                   : PGS
Codec ID                                 : S_HDMV/PGS
Codec ID/Info                            : Picture based subtitle format used on BDs/HD-DVDs
Duration                                 : 2 h 23 min
Bit rate                                 : 34.2 kb/s
Count of elements                        : 4352
Stream size                              : 35.1 MiB (0%)
Language                                 : French
Default                                  : No
Forced                                   : No
Original source medium                   : Blu-ray

Text #3
ID                                       : 6
ID in the original source medium         : 4610 (0x1202)
Format                                   : PGS
Codec ID                                 : S_HDMV/PGS
Codec ID/Info                            : Picture based subtitle format used on BDs/HD-DVDs
Duration                                 : 2 h 23 min
Bit rate                                 : 41.8 kb/s
Count of elements                        : 4106
Stream size                              : 43.0 MiB (0%)
Language                                 : Spanish
Default                                  : No
Forced                                   : No
Original source medium                   : Blu-ray

Text #4
ID                                       : 7
ID in the original source medium         : 4611 (0x1203)
Format                                   : PGS
Codec ID                                 : S_HDMV/PGS
Codec ID/Info                            : Picture based subtitle format used on BDs/HD-DVDs
Duration                                 : 2 h 23 min
Bit rate                                 : 44.0 kb/s
Count of elements                        : 4100
Stream size                              : 45.2 MiB (0%)
Language                                 : Portuguese
Default                                  : No
Forced                                   : No
Original source medium                   : Blu-ray

Text #5
ID                                       : 8
ID in the original source medium         : 4612 (0x1204)
Format                                   : PGS
Codec ID                                 : S_HDMV/PGS
Codec ID/Info                            : Picture based subtitle format used on BDs/HD-DVDs
Duration                                 : 2 h 23 min
Bit rate                                 : 32.5 kb/s
Count of elements                        : 2836
Stream size                              : 33.4 MiB (0%)
Language                                 : Danish
Default                                  : No
Forced                                   : No
Original source medium                   : Blu-ray

Text #6
ID                                       : 9
ID in the original source medium         : 4613 (0x1205)
Format                                   : PGS
Codec ID                                 : S_HDMV/PGS
Codec ID/Info                            : Picture based subtitle format used on BDs/HD-DVDs
Duration                                 : 2 h 23 min
Bit rate                                 : 34.0 kb/s
Count of elements                        : 3962
Stream size                              : 34.9 MiB (0%)
Language                                 : Finnish
Default                                  : No
Forced                                   : No
Original source medium                   : Blu-ray

Text #7
ID                                       : 10
ID in the original source medium         : 4614 (0x1206)
Format                                   : PGS
Codec ID                                 : S_HDMV/PGS
Codec ID/Info                            : Picture based subtitle format used on BDs/HD-DVDs
Duration                                 : 2 h 23 min
Bit rate                                 : 32.5 kb/s
Count of elements                        : 3026
Stream size                              : 33.4 MiB (0%)
Language                                 : Norwegian
Default                                  : No
Forced                                   : No
Original source medium                   : Blu-ray

Text #8
ID                                       : 11
ID in the original source medium         : 4615 (0x1207)
Format                                   : PGS
Codec ID                                 : S_HDMV/PGS
Codec ID/Info                            : Picture based subtitle format used on BDs/HD-DVDs
Duration                                 : 2 h 23 min
Bit rate                                 : 33.5 kb/s
Count of elements                        : 2902
Stream size                              : 34.4 MiB (0%)
Language                                 : Swedish
Default                                  : No
Forced                                   : No
Original source medium                   : Blu-ray

Menu
00:00:00.000                             : en:Chapter 01
00:10:36.886                             : en:Chapter 02
00:20:04.036                             : en:Chapter 03
00:28:38.717                             : en:Chapter 04
00:40:23.921                             : en:Chapter 05
00:50:42.581                             : en:Chapter 06
00:58:19.871                             : en:Chapter 07
01:10:56.335                             : en:Chapter 08
01:19:14.666                             : en:Chapter 09
01:29:03.379                             : en:Chapter 10
01:40:26.145                             : en:Chapter 11
01:50:23.491                             : en:Chapter 12
01:59:10.935                             : en:Chapter 13
02:11:52.779                             : en:Chapter 14
02:17:17.604                             : en:Chapter 15

Readme/Password

Password & My Message