Fast Download Mirrors

Land of Mine (2015) • Movie | BluRay.1080p.DTS-HD.MA.5.1.AVC.REMUX-FraMeSToR [19.96 GB]

Land of Mine Drama, History, War | December 3, 2015 (Denmark) Summary: In post-World War II Denmark, a group of young German POWs are forced to clear a beach of thousands of land mines under the watch of a Danish Sergeant who slowly learns to appreciate their p... Read all
Countries: Denmark, GermanyLanguages: German, Danish, English

In the days following the surrender of Germany in May 1945, a group of young German prisoners of war is handed over to the Danish authorities and subsequently sent to the West Coast, where they are ordered to remove the more than two million mines that the Germans had placed in the sand along the coast. With their bare hands, crawling around in the sand, the boys are forced to perform the dangerous work under the leadership of a Danish sergeant.

Mirrors: GDrive [Gadrive, GDToT, Index, Sharer], MultiUp
Format: MKV
Credits: FraMeSToR

Download

General
Unique ID : 17588238000704651189554038935464176837 (0xD3B5F159B8F4FEA4BFF8893E9C7ECC5)
Complete name : Land.of.Mine.2015.BluRay.1080p.DTS-HD.MA.5.1.AVC.REMUX-FraMeSToR.mkv
Format : Matroska
Format version : Version 4
File size : 20.0 GiB
Duration : 1 h 41 min
Overall bit rate mode : Variable
Overall bit rate : 28.3 Mb/s
Movie name : Under Sandet (2015)
Encoded date : UTC 2021-05-04 23:38:17
Writing application : mkvmerge v55.0.0 ('Waiting For Space') 64-bit
Writing library : libebml v1.4.2 + libmatroska v1.6.4
IMDB : tt3841424
TMDB : movie/335578

Video
ID : 1
Format : AVC
Format/Info : Advanced Video Codec
Format profile : High@L4.1
Format settings : CABAC / 2 Ref Frames
Format settings, CABAC : Yes
Format settings, Reference frames : 2 frames
Format settings, GOP : M=1, N=10
Codec ID : V_MPEG4/ISO/AVC
Duration : 1 h 41 min
Bit rate mode : Variable
Bit rate : 24.8 Mb/s
Width : 1 920 pixels
Height : 1 080 pixels
Display aspect ratio : 16:9
Frame rate mode : Constant
Frame rate : 23.976 (24000/1001) FPS
Color space : YUV
Chroma subsampling : 4:2:0
Bit depth : 8 bits
Scan type : Progressive
Bits/(Pixel*Frame) : 0.500
Stream size : 17.5 GiB (88%)
Default : Yes
Forced : No

Audio
ID : 2
Format : DTS XLL
Format/Info : Digital Theater Systems
Commercial name : DTS-HD Master Audio
Codec ID : A_DTS
Duration : 1 h 41 min
Bit rate mode : Variable
Bit rate : 3 229 kb/s
Channel(s) : 6 channels
Channel layout : C L R Ls Rs LFE
Sampling rate : 48.0 kHz
Frame rate : 93.750 FPS (512 SPF)
Bit depth : 24 bits
Compression mode : Lossless
Stream size : 2.28 GiB (11%)
Title : DTS-HD MA 5.1
Language : German
Default : Yes
Forced : No

Text #1
ID : 3
Format : PGS
Codec ID : S_HDMV/PGS
Codec ID/Info : Picture based subtitle format used on BDs/HD-DVDs
Duration : 1 h 38 min
Bit rate : 19.4 kb/s
Count of elements : 1364
Stream size : 13.7 MiB (0%)
Title : English
Language : English
Default : No
Forced : No

Text #2
ID : 4
Format : PGS
Codec ID : S_HDMV/PGS
Codec ID/Info : Picture based subtitle format used on BDs/HD-DVDs
Duration : 1 h 33 min
Bit rate : 24.7 kb/s
Count of elements : 1638
Stream size : 16.5 MiB (0%)
Title : English (SDH)
Language : English
Default : No
Forced : No

Text #3
ID : 5
Format : PGS
Codec ID : S_HDMV/PGS
Codec ID/Info : Picture based subtitle format used on BDs/HD-DVDs
Duration : 1 h 32 min
Bit rate : 16.4 kb/s
Count of elements : 1150
Stream size : 10.8 MiB (0%)
Title : Danish
Language : Danish
Default : No
Forced : No

Text #4
ID : 6
Format : PGS
Codec ID : S_HDMV/PGS
Codec ID/Info : Picture based subtitle format used on BDs/HD-DVDs
Duration : 1 h 32 min
Bit rate : 19.8 kb/s
Count of elements : 1370
Stream size : 13.2 MiB (0%)
Title : Danish (SDH)
Language : Danish
Default : No
Forced : No

Text #5
ID : 7
Format : PGS
Codec ID : S_HDMV/PGS
Codec ID/Info : Picture based subtitle format used on BDs/HD-DVDs
Duration : 1 h 36 min
Bit rate : 15.1 kb/s
Count of elements : 1344
Stream size : 10.4 MiB (0%)
Title : Finnish
Language : Finnish
Default : No
Forced : No

Text #6
ID : 8
Format : PGS
Codec ID : S_HDMV/PGS
Codec ID/Info : Picture based subtitle format used on BDs/HD-DVDs
Duration : 1 h 38 min
Bit rate : 18.4 kb/s
Count of elements : 1784
Stream size : 13.0 MiB (0%)
Title : French
Language : French
Default : No
Forced : No

Text #7
ID : 9
Format : PGS
Codec ID : S_HDMV/PGS
Codec ID/Info : Picture based subtitle format used on BDs/HD-DVDs
Duration : 1 h 40 min
Bit rate : 22.0 kb/s
Count of elements : 2308
Stream size : 15.8 MiB (0%)
Title : French (SDH)
Language : French
Default : No
Forced : No

Text #8
ID : 10
Format : PGS
Codec ID : S_HDMV/PGS
Codec ID/Info : Picture based subtitle format used on BDs/HD-DVDs
Duration : 1 h 29 min
Bit rate : 2 989 b/s
Count of elements : 224
Stream size : 1.91 MiB (0%)
Title : German (Forced)
Language : German
Default : No
Forced : No

Text #9
ID : 11
Format : PGS
Codec ID : S_HDMV/PGS
Codec ID/Info : Picture based subtitle format used on BDs/HD-DVDs
Duration : 1 h 32 min
Bit rate : 22.2 kb/s
Count of elements : 1758
Stream size : 14.7 MiB (0%)
Title : Italian
Language : Italian
Default : No
Forced : No

Text #10
ID : 12
Format : PGS
Codec ID : S_HDMV/PGS
Codec ID/Info : Picture based subtitle format used on BDs/HD-DVDs
Duration : 1 h 36 min
Bit rate : 15.3 kb/s
Count of elements : 1350
Stream size : 10.6 MiB (0%)
Title : Norwegian
Language : Norwegian
Default : No
Forced : No

Text #11
ID : 13
Format : PGS
Codec ID : S_HDMV/PGS
Codec ID/Info : Picture based subtitle format used on BDs/HD-DVDs
Duration : 1 h 39 min
Bit rate : 15.6 kb/s
Count of elements : 1352
Stream size : 11.1 MiB (0%)
Title : Swedish
Language : Swedish
Default : No
Forced : No

Menu
00:00:00.000 : Chapter 1
00:05:09.768 : Chapter 2
00:14:03.718 : Chapter 3
00:17:55.366 : Chapter 4
00:22:32.768 : Chapter 5
00:30:10.183 : Chapter 6
00:36:56.423 : Chapter 7
00:42:08.735 : Chapter 8
00:50:50.130 : Chapter 9
00:54:40.110 : Chapter 10
00:59:59.513 : Chapter 11
01:03:53.705 : Chapter 12
01:09:38.674 : Chapter 13
01:17:53.252 : Chapter 14
01:26:38.193 : Chapter 15
01:32:56.905 : Chapter 16

Readme/Password

Password & My Message