Fast Download Mirrors

Last Night in Soho (2021) • Movie | 1080p.AMZN.WEB-DL.DDP5.1.H.264-EVO [7.98GB]

Last Night in Soho Drama, Horror, Mystery, Thriller | October 29, 2021 (United States) Summary: An aspiring fashion designer is mysteriously able to enter the 1960s where she encounters a dazzling wannabe singer. But the glamour is not all it appears to be and the dreams of the past st... Read all
Countries: United Kingdom, United StatesLanguages: English

A young girl, passionate about fashion design, is mysteriously able to enter the 1960s where she encounters her idol, a dazzling wannabe singer. But 1960s London is not what it seems, and time seems to be falling apart with shady consequences.

Mirrors: MultiUp, MirrorAce, GDrive Index, Gdrive[GDTOT, Sharer]
Format: MKV
Credits: EVO

Download

General
Unique ID                                : 234907469010655413708687200789568343491 (0xB0B9886A59CB4F9FA20834227F46CDC3)
Complete name                            : Last.Night.in.Soho.2021.1080p.AMZN.WEB-DL.DDP5.1.H.264-EVO.mkv
Format                                   : Matroska
Format version                           : Version 4
File size                                : 7.98 GiB
Duration                                 : 1 h 56 min
Overall bit rate mode                    : Constant
Overall bit rate                         : 9 771 kb/s
Encoded date                             : UTC 2021-11-18 03:33:02
Writing application                      : mkvmerge v45.0.0 ('Heaven in Pennies') 64-bit
Writing library                          : libebml v1.3.10 + libmatroska v1.5.2

Video
ID                                       : 1
Format                                   : AVC
Format/Info                              : Advanced Video Codec
Format profile                           : High@L4
Format settings                          : CABAC / 4 Ref Frames
Format settings, CABAC                   : Yes
Format settings, Reference frames        : 4 frames
Codec ID                                 : V_MPEG4/ISO/AVC
Duration                                 : 1 h 56 min
Bit rate mode                            : Constant
Bit rate                                 : 9 129 kb/s
Nominal bit rate                         : 10 000 kb/s
Width                                    : 1 920 pixels
Height                                   : 800 pixels
Display aspect ratio                     : 2.40:1
Frame rate mode                          : Constant
Frame rate                               : 23.976 (24000/1001) FPS
Color space                              : YUV
Chroma subsampling                       : 4:2:0
Bit depth                                : 8 bits
Scan type                                : Progressive
Bits/(Pixel*Frame)                       : 0.248
Stream size                              : 7.46 GiB (93%)
Default                                  : Yes
Forced                                   : No
Color range                              : Limited
Color primaries                          : BT.709
Transfer characteristics                 : BT.709
Matrix coefficients                      : BT.709

Audio
ID                                       : 2
Format                                   : E-AC-3
Format/Info                              : Enhanced AC-3
Commercial name                          : Dolby Digital Plus
Codec ID                                 : A_EAC3
Duration                                 : 1 h 56 min
Bit rate mode                            : Constant
Bit rate                                 : 640 kb/s
Channel(s)                               : 6 channels
Channel layout                           : L R C LFE Ls Rs
Sampling rate                            : 48.0 kHz
Frame rate                               : 31.250 FPS (1536 SPF)
Compression mode                         : Lossy
Stream size                              : 535 MiB (7%)
Language                                 : English
Service kind                             : Complete Main
Default                                  : Yes
Forced                                   : No

Readme/Password

Password & My Message

Screenshots