Fast Download Mirrors

Little Women (2019) • Movie | BluRay

Little Women (2019) • Movie | BluRay
Little Women (2019) 135min | Drama, Romance | December 25, 2019 (United States) Summary: Jo March reflects back and forth on her life, telling the beloved story of the March sisters - four young women, each determined to live life on her own terms.
Countries: United StatesLanguages: English, French

Jo March reflects back and forth on her life, telling the beloved story of the March sisters – four young women, each determined to live life on her own terms.

Mirrors: GDrive Index, Gdrive[GDTOT]
Format: MKV

Download

General : Matroska / 5.71 GiB / 2 h 14 min / 6 058 kb/s

Video : HEVC / Main 10@L4@Main / 5 495 kb/s / 1 920 pixels / 1 040 pixels / 1.85:1 / 23.976 (24000/1001) FPS / *Default
Writing library : x265 3.2+23-52135ffd9bcd:[Windows][GCC 9.2.0][64 bit] 10bit
Encoding settings : cpuid=1111039 / frame-threads=3 / numa-pools=8 / wpp / no-pmode / no-pme / no-psnr / no-ssim / log-level=2 / input-csp=1 / input-res=1920x1040 / interlace=0 / total-frames=194064 / level-idc=0 / high-tier=1 / uhd-bd=0 / ref=4 / no-allow-non-conformance / no-repeat-headers / annexb / no-aud / no-hrd / info / hash=0 / no-temporal-layers / open-gop / min-keyint=23 / keyint=250 / gop-lookahead=0 / bframes=4 / b-adapt=2 / b-pyramid / bframe-bias=0 / rc-lookahead=25 / lookahead-slices=4 / scenecut=40 / hist-scenecut=0 / radl=0 / no-splice / no-intra-refresh / ctu=64 / min-cu-size=8 / rect / no-amp / max-tu-size=32 / tu-inter-depth=1 / tu-intra-depth=1 / limit-tu=0 / rdoq-level=2 / dynamic-rd=0.00 / no-ssim-rd / signhide / no-tskip / nr-intra=0 / nr-inter=0 / no-constrained-intra / strong-intra-smoothing / max-merge=3 / limit-refs=3 / limit-modes / me=3 / subme=3 / merange=57 / temporal-mvp / no-frame-dup / no-hme / weightp / no-weightb / no-analyze-src-pics / deblock=0:0 / no-sao / no-sao-non-deblock / rd=4 / selective-sao=0 / no-early-skip / rskip / no-fast-intra / no-tskip-fast / no-cu-lossless / no-b-intra / no-splitrd-skip / rdpenalty=0 / psy-rd=2.00 / psy-rdoq=1.00 / no-rd-refine / no-lossless / cbqpoffs=0 / crqpoffs=0 / rc=abr / bitrate=5500 / qcomp=0.60 / qpstep=4 / stats-write=0 / stats-read=2 / cplxblur=20.0 / qblur=0.5 / ipratio=1.40 / pbratio=1.30 / aq-mode=3 / aq-strength=1.00 / cutree / zone-count=0 / no-strict-cbr / qg-size=32 / no-rc-grain / qpmax=69 / qpmin=0 / no-const-vbv / sar=0 / overscan=0 / videoformat=5 / range=0 / colorprim=2 / transfer=2 / colormatrix=2 / chromaloc=0 / display-window=0 / cll=0,0 / min-luma=0 / max-luma=1023 / log2-max-poc-lsb=8 / vui-timing-info / vui-hrd-info / slices=1 / no-opt-qp-pps / no-opt-ref-list-length-pps / multi-pass-opt-rps / scenecut-bias=0.05 / hist-threshold=0.01 / no-opt-cu-delta-qp / aq-motion / no-hdr / no-hdr-opt / no-dhdr10-opt / no-idr-recovery-sei / analysis-reuse-level=5 / scale-factor=0 / refine-intra=0 / refine-inter=0 / refine-mv=1 / refine-ctu-distortion=0 / no-limit-sao / ctu-info=0 / no-lowpass-dct / refine-analysis-type=0 / copy-pic=1 / max-ausize-factor=1.0 / no-dynamic-refine / no-single-sei / no-hevc-aq / no-svt / no-field / qp-adaptation-range=1.00 / no-scenecut-aware-qp

Audio : AAC LC / 411 kb/s / 6 channels / English / *Default

Text #1 : VobSub / 12.4 kb/s / English
Text #2 : VobSub / 5 486 b/s / Arabic
Text #3 : VobSub / 9 102 b/s / Bulgarian
Text #4 : VobSub / 7 746 b/s / Chinese
Text #5 : VobSub / 9 732 b/s / Croatian
Text #6 : VobSub / 8 829 b/s / Czech
Text #7 : VobSub / 8 954 b/s / French
Text #8 : VobSub / 11.4 kb/s / Greek
Text #9 : VobSub / 8 148 b/s / Hebrew
Text #10 : VobSub / 9 228 b/s / Hungarian
Text #11 : VobSub / 10.8 kb/s / Icelandic
Text #12 : VobSub / 11.1 kb/s / Indonesian
Text #13 : VobSub / 9 315 b/s / Italian
Text #14 : VobSub / 8 020 b/s / Korean
Text #15 : VobSub / 13.0 kb/s / Malay
Text #16 : VobSub / 9 604 b/s / Polish
Text #17 : VobSub / 10.3 kb/s / Portuguese
Text #18 : VobSub / 10.0 kb/s / Romanian
Text #19 : VobSub / 10.5 kb/s / Serbian
Text #20 : VobSub / 10.3 kb/s / Slovak
Text #21 : VobSub / 8 599 b/s / Slovenian
Text #22 : VobSub / 10.1 kb/s / Spanish
Text #23 : VobSub / 8 121 b/s / Thai
Text #24 : VobSub / 10.6 kb/s / Turkish
Text #25 : VobSub / 12.8 kb/s / Vietnamese

Menu
00:00:00.000 : en:Chapter 01
00:06:02.362 : en:Chapter 02
00:12:05.850 : en:Chapter 03
00:24:24.588 : en:Chapter 04
00:30:18.024 : en:Chapter 05
00:38:38.899 : en:Chapter 06
00:47:06.240 : en:Chapter 07
00:57:35.994 : en:Chapter 08
01:07:18.034 : en:Chapter 09
01:16:24.413 : en:Chapter 10
01:20:07.135 : en:Chapter 11
01:25:45.014 : en:Chapter 12
01:29:35.328 : en:Chapter 13
01:39:53.487 : en:Chapter 14
01:49:37.487 : en:Chapter 15
02:06:21.448 : en:Chapter 16

Source:
Release : Little.Women.2019.COMPLETE.BLURAY-YOL0W
Complete name : Little Women (2019)_t159.mkv
File size : 33.3 GiB
Duration : 2 h 14 min
Overall bit rate mode : Variable
Overall bit rate : 35.3 Mb/s

Video
ID : 1
Format : HEVC
Format/Info : High Efficiency Video Coding
Format profile : Main 10@L5.2@High
HDR format : SMPTE ST 2086, HDR10 compatible
Codec ID : V_MPEGH/ISO/HEVC
Duration : 2 h 14 min
Bit rate : 73.7 Mb/s
Width : 3 840 pixels
Height : 2 160 pixels
Display aspect ratio : 16:9
Frame rate mode : Constant
Frame rate : 23.976 (24000/1001) FPS
Color space : YUV
Chroma subsampling : 4:2:0 (Type 2)
Bit depth : 10 bits
Bits/(Pixel*Frame) : 0.371
Stream size : 69.5 GiB (95%)
Language : English
Default : Yes
Forced : No
Color range : Full
Color primaries : BT.2020
Transfer characteristics : PQ
Matrix coefficients : BT.2020 non-constant
Mastering display color primaries : BT.2020
Mastering display luminance : min: 0.0050 cd/m2, max: 1000 cd/m2
Maximum Content Light Level : 1276 cd/m2
Maximum Frame-Average Light Level : 77 cd/m2

Audio #1
ID : 2
Format : DTS XLL
Format/Info : Digital Theater Systems
Commercial name : DTS-HD Master Audio
Codec ID : A_DTS
Duration : 2 h 14 min
Bit rate mode : Variable
Bit rate : 2 131 kb/s
Channel(s) : 6 channels
Channel layout : C L R Ls Rs LFE
Sampling rate : 48.0 kHz
Frame rate : 93.750 FPS (512 SPF)
Bit depth : 16 bits
Compression mode : Lossless
Delay relative to video : 5 ms
Stream size : 2.01 GiB (3%)
Title : DTS-HD MA 5.1
Language : English
Default : Yes
Forced : No

Audio #2
ID : 3
Format : DTS
Format/Info : Digital Theater Systems
Codec ID : A_DTS
Duration : 2 h 14 min
Bit rate mode : Constant
Bit rate : 768 kb/s
Channel(s) : 6 channels
Channel layout : C L R Ls Rs LFE
Sampling rate : 48.0 kHz
Frame rate : 93.750 FPS (512 SPF)
Bit depth : 24 bits
Compression mode : Lossy
Stream size : 741 MiB (1%)
Title : DTS 5.1
Language : English
Default : No
Forced : No

Audio #3
ID : 4
Format : AC-3
Format/Info : Audio Coding 3
Commercial name : Dolby Digital
Codec ID : A_AC3
Duration : 2 h 14 min
Bit rate mode : Constant
Bit rate : 640 kb/s
Channel(s) : 6 channels
Channel layout : L R C LFE Ls Rs
Sampling rate : 48.0 kHz
Frame rate : 31.250 FPS (1536 SPF)
Compression mode : Lossy
Stream size : 617 MiB (1%)
Title : DD 5.1
Language : English
Service kind : Complete Main
Default : No
Forced : No

Text
ID : 5
Format : UTF-8
Codec ID : S_TEXT/UTF8
Codec ID/Info : UTF-8 Plain Text
Duration : 2 h 5 min
Bit rate : 68 b/s
Count of elements : 1664
Stream size : 62.5 KiB (0%)
Language : English
Default : Yes
Forced : No

Menu
00:00:00.000 : Studio Logos
00:00:58.001 : Quote
00:01:06.001 : Jo Pitches a Story
00:04:42.001 : Title Sequence
00:04:45.001 : Distracted Writing
00:06:03.001 : Amy Runs Into an Old Friend
00:08:39.001 : Meg Buys Some Fabric
00:09:41.001 : Beth Plays the Piano
00:10:10.001 : A Night on the Town
00:17:59.001 : A Gift from Friedrich
00:19:18.001 : Laurie Embarasses Amy
00:21:28.001 : Friedrich Critiques Jo's Writing
00:24:38.001 : Christmas Morning
00:33:33.001 : Friedrich Inquires about Jo
00:33:52.001 : Making Your Way in the World
00:37:02.001 : Amy Acts Out at School
00:40:43.001 : Letting Laurie into the Group
00:43:24.001 : Jo Returns Home
00:44:40.001 : Amy Takes Revenge Against Jo
00:53:22.001 : Attending a Debutante Ball
01:01:23.001 : Meg Wants Nice Things
01:03:14.001 : Amy Wants More from the World
01:07:28.001 : A Day at the Beach
01:10:06.001 : Supporting War Efforts
01:13:35.001 : Laurie Confesses to Amy
01:16:25.001 : A Gift for Beth
01:22:03.001 : Amy is Their Last Hope
01:24:29.001 : Fighting off Sickness
01:31:20.001 : Not Everyone is Suited for Marriage
01:39:54.001 : The Sting of Loneliness
01:43:03.001 : Husband and Wife
01:49:38.001 : A Life Without Beth
01:50:46.001 : A Story for Beth
01:54:22.001 : A Gift from Aunt March
01:56:04.001 : An Unexpected Visitor
02:01:38.001 : A Story with Fans
02:02:10.001 : A Change in the Ending
02:06:22.001 : A Celebration of a Life Well Lived
02:09:49.001 : End Credits

Password

Password & My Message