Fast Download Mirrors

Locke and Key (2020-) • TVSeries | S02.1080p.NF.WEB-DL.DD+5.1.Atmos.HDR.HEVC+x264-SHAUN [21GB+17GB]

Locke and Key (2020)
Locke & Key 2880min | Drama, Fantasy, Horror, Mystery, Thriller | February 7, 2020 (United States) Summary: After their father is murdered under mysterious circumstances, the three Locke siblings and their mother move into their ancestral home, Keyhouse, which they discover is full of magical keys... Read all
Countries: Canada, United StatesLanguages: English

Three siblings who move into their ancestral estate after their father’s gruesome murder discover their new home’s magical keys, which must be used in their stand against an evil creature who wants the keys and their powers.

Mirrors: MultiUp, Gdrive[GDTOT], Gdrive Index
Format: MKV
Credits: SHAUN
Seasons-2 Complete

Download – [Single File]

Complete name : Locke.and.Key.S02E01.the.Premiere.1080p.NF.WEB-DL.DD+5.1.Atmos.HEVC-SHAUN.mkv
Format : Matroska
Format version : Version 4
File size : 2.24 GiB
Duration : 53 min 12 s
Overall bit rate : 6 029 kb/s
Encoded date : UTC 2021-10-22 07:03:41
Writing application : mkvmerge v59.0.0 ('Shining Star') 64-bit
Writing library : libebml v1.4.2 + libmatroska v1.6.4

Video
ID : 1
Format : HEVC
Format/Info : High Efficiency Video Coding
Format profile : Main 10@L4@Main
HDR format : SMPTE ST 2086, HDR10 compatible
Codec ID : V_MPEGH/ISO/HEVC
Duration : 51 min 34 s
Bit rate : 4 762 kb/s
Width : 1 920 pixels
Height : 1 080 pixels
Display aspect ratio : 16:9
Frame rate mode : Constant
Frame rate : 23.976 (24000/1001) FPS
Color space : YUV
Chroma subsampling : 4:2:0 (Type 2)
Bit depth : 10 bits
Bits/(Pixel*Frame) : 0.096
Stream size : 1.72 GiB (77%)
Default : Yes
Forced : No
Color range : Limited
Color primaries : BT.2020
Transfer characteristics : PQ
Matrix coefficients : BT.2020 non-constant
Mastering display color primaries : Display P3
Mastering display luminance : min: 0.0001 cd/m2, max: 1000 cd/m2
Maximum Content Light Level : 1260 cd/m2
Maximum Frame-Average Light Level : 821 cd/m2

Audio #1
ID : 2
Format : E-AC-3 JOC
Format/Info : Enhanced AC-3 with Joint Object Coding
Commercial name : Dolby Digital Plus with Dolby Atmos
Codec ID : A_EAC3
Duration : 53 min 11 s
Bit rate mode : Constant
Bit rate : 768 kb/s
Channel(s) : 6 channels
Channel layout : L R C LFE Ls Rs
Sampling rate : 48.0 kHz
Frame rate : 31.250 FPS (1536 SPF)
Compression mode : Lossy
Stream size : 292 MiB (13%)
Title : English
Language : English
Service kind : Complete Main
Default : Yes
Forced : No
Complexity index : 16
Number of dynamic objects : 15
Bed channel count : 1 channel
Bed channel configuration : LFE

Audio #2
ID : 3
Format : E-AC-3
Format/Info : Enhanced AC-3
Commercial name : Dolby Digital Plus
Codec ID : A_EAC3
Duration : 53 min 12 s
Bit rate mode : Constant
Bit rate : 640 kb/s
Channel(s) : 6 channels
Channel layout : L R C LFE Ls Rs
Sampling rate : 48.0 kHz
Frame rate : 31.250 FPS (1536 SPF)
Compression mode : Lossy
Stream size : 244 MiB (11%)
Title : Hindi
Language : Hindi
Service kind : Complete Main
Default : No
Forced : No

Text #1
ID : 4
Format : UTF-8
Codec ID : S_TEXT/UTF8
Codec ID/Info : UTF-8 Plain Text
Duration : 48 min 52 s
Bit rate : 86 b/s
Count of elements : 774
Stream size : 31.1 KiB (0%)
Title : English
Language : English
Default : Yes
Forced : No

Text #2
ID : 5
Format : UTF-8
Codec ID : S_TEXT/UTF8
Codec ID/Info : UTF-8 Plain Text
Duration : 51 min 11 s
Bit rate : 81 b/s
Count of elements : 559
Stream size : 30.4 KiB (0%)
Title : Arabic
Language : Arabic
Default : No
Forced : No

Text #3
ID : 6
Format : UTF-8
Codec ID : S_TEXT/UTF8
Codec ID/Info : UTF-8 Plain Text
Duration : 51 min 11 s
Bit rate : 52 b/s
Count of elements : 556
Stream size : 19.7 KiB (0%)
Title : Chinese Simplified
Language : Chinese
Default : No
Forced : No

Text #4
ID : 7
Format : UTF-8
Codec ID : S_TEXT/UTF8
Codec ID/Info : UTF-8 Plain Text
Duration : 51 min 11 s
Bit rate : 47 b/s
Count of elements : 563
Stream size : 17.8 KiB (0%)
Title : Chinese Traditional
Language : Chinese
Default : No
Forced : No

Text #5
ID : 8
Format : UTF-8
Codec ID : S_TEXT/UTF8
Codec ID/Info : UTF-8 Plain Text
Duration : 51 min 2 s
Bit rate : 41 b/s
Count of elements : 544
Stream size : 15.5 KiB (0%)
Title : Croatian
Language : Croatian
Default : No
Forced : No

Text #6
ID : 9
Format : UTF-8
Codec ID : S_TEXT/UTF8
Codec ID/Info : UTF-8 Plain Text
Duration : 51 min 2 s
Bit rate : 44 b/s
Count of elements : 550
Stream size : 16.8 KiB (0%)
Title : Czech
Language : Czech
Default : No
Forced : No

Text #7
ID : 10
Format : UTF-8
Codec ID : S_TEXT/UTF8
Codec ID/Info : UTF-8 Plain Text
Duration : 51 min 2 s
Bit rate : 44 b/s
Count of elements : 538
Stream size : 16.7 KiB (0%)
Title : Danish
Language : Danish
Default : No
Forced : No

Text #8
ID : 11
Format : UTF-8
Codec ID : S_TEXT/UTF8
Codec ID/Info : UTF-8 Plain Text
Duration : 51 min 2 s
Bit rate : 45 b/s
Count of elements : 509
Stream size : 16.9 KiB (0%)
Title : Dutch
Language : Dutch
Default : No
Forced : No

Text #9
ID : 12
Format : UTF-8
Codec ID : S_TEXT/UTF8
Codec ID/Info : UTF-8 Plain Text
Duration : 51 min 2 s
Bit rate : 44 b/s
Count of elements : 473
Stream size : 16.5 KiB (0%)
Title : Finnish
Language : Finnish
Default : No
Forced : No

Text #10
ID : 13
Format : UTF-8
Codec ID : S_TEXT/UTF8
Codec ID/Info : UTF-8 Plain Text
Duration : 50 min 59 s
Bit rate : 43 b/s
Count of elements : 487
Stream size : 16.2 KiB (0%)
Title : French
Language : French
Default : No
Forced : No

Text #11
ID : 14
Format : UTF-8
Codec ID : S_TEXT/UTF8
Codec ID/Info : UTF-8 Plain Text
Duration : 51 min 2 s
Bit rate : 44 b/s
Count of elements : 543
Stream size : 16.6 KiB (0%)
Title : German
Language : German
Default : No
Forced : No

Text #12
ID : 15
Format : UTF-8
Codec ID : S_TEXT/UTF8
Codec ID/Info : UTF-8 Plain Text
Duration : 51 min 11 s
Bit rate : 72 b/s
Count of elements : 548
Stream size : 27.0 KiB (0%)
Title : Greek
Language : Greek
Default : No
Forced : No

Text #13
ID : 16
Format : UTF-8
Codec ID : S_TEXT/UTF8
Codec ID/Info : UTF-8 Plain Text
Duration : 51 min 11 s
Bit rate : 75 b/s
Count of elements : 562
Stream size : 28.2 KiB (0%)
Title : Hebrew
Language : Hebrew
Default : No
Forced : No

Text #14
ID : 17
Format : UTF-8
Codec ID : S_TEXT/UTF8
Codec ID/Info : UTF-8 Plain Text
Duration : 51 min 11 s
Bit rate : 45 b/s
Count of elements : 547
Stream size : 16.9 KiB (0%)
Title : Hungarian
Language : Hungarian
Default : No
Forced : No

Text #15
ID : 18
Format : UTF-8
Codec ID : S_TEXT/UTF8
Codec ID/Info : UTF-8 Plain Text
Duration : 51 min 7 s
Bit rate : 44 b/s
Count of elements : 539
Stream size : 16.8 KiB (0%)
Title : Indonesian
Language : Indonesian
Default : No
Forced : No

Text #16
ID : 19
Format : UTF-8
Codec ID : S_TEXT/UTF8
Codec ID/Info : UTF-8 Plain Text
Duration : 50 min 59 s
Bit rate : 46 b/s
Count of elements : 539
Stream size : 17.4 KiB (0%)
Title : Italian
Language : Italian
Default : No
Forced : No

Text #17
ID : 20
Format : UTF-8
Codec ID : S_TEXT/UTF8
Codec ID/Info : UTF-8 Plain Text
Duration : 51 min 9 s
Bit rate : 45 b/s
Count of elements : 547
Stream size : 17.1 KiB (0%)
Title : Japanese
Language : Japanese
Default : No
Forced : No

Text #18
ID : 21
Format : UTF-8
Codec ID : S_TEXT/UTF8
Codec ID/Info : UTF-8 Plain Text
Duration : 51 min 9 s
Bit rate : 59 b/s
Count of elements : 588
Stream size : 22.4 KiB (0%)
Title : Korean
Language : Korean
Default : No
Forced : No

Text #19
ID : 22
Format : UTF-8
Codec ID : S_TEXT/UTF8
Codec ID/Info : UTF-8 Plain Text
Duration : 51 min 2 s
Bit rate : 44 b/s
Count of elements : 550
Stream size : 16.6 KiB (0%)
Title : Malay
Language : Malay
Default : No
Forced : No

Text #20
ID : 23
Format : UTF-8
Codec ID : S_TEXT/UTF8
Codec ID/Info : UTF-8 Plain Text
Duration : 51 min 2 s
Bit rate : 41 b/s
Count of elements : 500
Stream size : 15.7 KiB (0%)
Title : Norwegian Bokmal
Language : Norwegian Bokmal
Default : No
Forced : No

Text #21
ID : 24
Format : UTF-8
Codec ID : S_TEXT/UTF8
Codec ID/Info : UTF-8 Plain Text
Duration : 51 min 7 s
Bit rate : 42 b/s
Count of elements : 550
Stream size : 15.9 KiB (0%)
Title : Polish
Language : Polish
Default : No
Forced : No

Text #22
ID : 25
Format : UTF-8
Codec ID : S_TEXT/UTF8
Codec ID/Info : UTF-8 Plain Text
Duration : 51 min 2 s
Bit rate : 43 b/s
Count of elements : 544
Stream size : 16.2 KiB (0%)
Title : Portuguese
Language : Portuguese
Default : No
Forced : No

Text #23
ID : 26
Format : UTF-8
Codec ID : S_TEXT/UTF8
Codec ID/Info : UTF-8 Plain Text
Duration : 51 min 4 s
Bit rate : 45 b/s
Count of elements : 555
Stream size : 16.9 KiB (0%)
Title : Brazilian Portuguese
Language : Portuguese
Default : No
Forced : No

Text #24
ID : 27
Format : UTF-8
Codec ID : S_TEXT/UTF8
Codec ID/Info : UTF-8 Plain Text
Duration : 51 min 2 s
Bit rate : 47 b/s
Count of elements : 536
Stream size : 17.9 KiB (0%)
Title : Romanian
Language : Romanian
Default : No
Forced : No

Text #25
ID : 28
Format : UTF-8
Codec ID : S_TEXT/UTF8
Codec ID/Info : UTF-8 Plain Text
Duration : 51 min 8 s
Bit rate : 70 b/s
Count of elements : 544
Stream size : 26.5 KiB (0%)
Title : Russian
Language : Russian
Default : No
Forced : No

Text #26
ID : 29
Format : UTF-8
Codec ID : S_TEXT/UTF8
Codec ID/Info : UTF-8 Plain Text
Duration : 51 min 2 s
Bit rate : 42 b/s
Count of elements : 574
Stream size : 15.9 KiB (0%)
Title : Spanish
Language : Spanish
Default : No
Forced : No

Text #27
ID : 30
Format : UTF-8
Codec ID : S_TEXT/UTF8
Codec ID/Info : UTF-8 Plain Text
Duration : 51 min 2 s
Bit rate : 44 b/s
Count of elements : 553
Stream size : 16.5 KiB (0%)
Title : European Spanish
Language : Spanish
Default : No
Forced : No

Text #28
ID : 31
Format : UTF-8
Codec ID : S_TEXT/UTF8
Codec ID/Info : UTF-8 Plain Text
Duration : 50 min 59 s
Bit rate : 44 b/s
Count of elements : 490
Stream size : 16.5 KiB (0%)
Title : Swedish
Language : Swedish
Default : No
Forced : No

Text #29
ID : 32
Format : UTF-8
Codec ID : S_TEXT/UTF8
Codec ID/Info : UTF-8 Plain Text
Duration : 51 min 11 s
Bit rate : 117 b/s
Count of elements : 567
Stream size : 44.0 KiB (0%)
Title : Thai
Language : Thai
Default : No
Forced : No

Text #30
ID : 33
Format : UTF-8
Codec ID : S_TEXT/UTF8
Codec ID/Info : UTF-8 Plain Text
Duration : 51 min 2 s
Bit rate : 46 b/s
Count of elements : 539
Stream size : 17.3 KiB (0%)
Title : Turkish
Language : Turkish
Default : No
Forced : No

Text #31
ID : 34
Format : UTF-8
Codec ID : S_TEXT/UTF8
Codec ID/Info : UTF-8 Plain Text
Duration : 51 min 11 s
Bit rate : 72 b/s
Count of elements : 552
Stream size : 27.4 KiB (0%)
Title : Ukrainian
Language : Ukrainian
Default : No
Forced : No

Text #32
ID : 35
Format : UTF-8
Codec ID : S_TEXT/UTF8
Codec ID/Info : UTF-8 Plain Text
Duration : 51 min 2 s
Bit rate : 61 b/s
Count of elements : 557
Stream size : 23.2 KiB (0%)
Title : Vietnamese
Language : Vietnamese
Default : No
Forced : No

Complete name : Locke.and.Key.S02E01.the.Premiere.1080p.NF.WEB-DL.DD+5.1.Atmos.x264-SHAUN.mkv
Format : Matroska
Format version : Version 4
File size : 2.06 GiB
Duration : 53 min 12 s
Overall bit rate mode : Variable
Overall bit rate : 5 552 kb/s
Encoded date : UTC 2021-10-22 07:00:59
Writing application : mkvmerge v59.0.0 ('Shining Star') 64-bit
Writing library : libebml v1.4.2 + libmatroska v1.6.4

Video
ID : 1
Format : AVC
Format/Info : Advanced Video Codec
Format profile : High@L4
Format settings : CABAC / 4 Ref Frames
Format settings, CABAC : Yes
Format settings, Reference frames : 4 frames
Codec ID : V_MPEG4/ISO/AVC
Duration : 53 min 10 s
Bit rate mode : Variable
Bit rate : 4 140 kb/s
Maximum bit rate : 20.0 Mb/s
Width : 1 920 pixels
Height : 1 080 pixels
Display aspect ratio : 16:9
Frame rate mode : Constant
Frame rate : 23.976 (24000/1001) FPS
Color space : YUV
Chroma subsampling : 4:2:0
Bit depth : 8 bits
Scan type : Progressive
Bits/(Pixel*Frame) : 0.083
Stream size : 1.54 GiB (75%)
Writing library : x264 core 148 r2724 dbe0335
Encoding settings : cabac=1 / ref=4 / deblock=1:0:0 / analyse=0x3:0x111 / me=umh / subme=10 / psy=1 / psy_rd=1.00:0.00 / mixed_ref=1 / me_range=120 / chroma_me=1 / trellis=2 / 8x8dct=1 / cqm=0 / deadzone=21,11 / fast_pskip=1 / chroma_qp_offset=-2 / threads=8 / lookahead_threads=2 / sliced_threads=0 / nr=0 / decimate=1 / interlaced=0 / bluray_compat=0 / stitchable=1 / constrained_intra=0 / bframes=16 / b_pyramid=2 / b_adapt=2 / b_bias=0 / direct=3 / weightb=1 / open_gop=0 / weightp=2 / keyint=240 / keyint_min=121 / scenecut=0 / intra_refresh=0 / rc_lookahead=240 / rc=crf / mbtree=1 / crf=16.0 / qcomp=0.50 / qpmin=6 / qpmax=51 / qpstep=4 / vbv_maxrate=20000 / vbv_bufsize=25000 / crf_max=0.0 / nal_hrd=vbr / filler=0 / ip_ratio=1.40 / aq=1:0.80
Default : Yes
Forced : No

Audio #1
ID : 2
Format : E-AC-3 JOC
Format/Info : Enhanced AC-3 with Joint Object Coding
Commercial name : Dolby Digital Plus with Dolby Atmos
Codec ID : A_EAC3
Duration : 53 min 11 s
Bit rate mode : Constant
Bit rate : 768 kb/s
Channel(s) : 6 channels
Channel layout : L R C LFE Ls Rs
Sampling rate : 48.0 kHz
Frame rate : 31.250 FPS (1536 SPF)
Compression mode : Lossy
Stream size : 292 MiB (14%)
Title : English
Language : English
Service kind : Complete Main
Default : Yes
Forced : No
Complexity index : 16
Number of dynamic objects : 15
Bed channel count : 1 channel
Bed channel configuration : LFE

Audio #2
ID : 3
Format : E-AC-3
Format/Info : Enhanced AC-3
Commercial name : Dolby Digital Plus
Codec ID : A_EAC3
Duration : 53 min 12 s
Bit rate mode : Constant
Bit rate : 640 kb/s
Channel(s) : 6 channels
Channel layout : L R C LFE Ls Rs
Sampling rate : 48.0 kHz
Frame rate : 31.250 FPS (1536 SPF)
Compression mode : Lossy
Stream size : 244 MiB (12%)
Title : Hindi
Language : Hindi
Service kind : Complete Main
Default : No
Forced : No

Text #1
ID : 4
Format : UTF-8
Codec ID : S_TEXT/UTF8
Codec ID/Info : UTF-8 Plain Text
Duration : 48 min 52 s
Bit rate : 86 b/s
Count of elements : 774
Stream size : 31.1 KiB (0%)
Title : English
Language : English
Default : Yes
Forced : No

Text #2
ID : 5
Format : UTF-8
Codec ID : S_TEXT/UTF8
Codec ID/Info : UTF-8 Plain Text
Duration : 51 min 11 s
Bit rate : 81 b/s
Count of elements : 559
Stream size : 30.4 KiB (0%)
Title : Arabic
Language : Arabic
Default : No
Forced : No

Text #3
ID : 6
Format : UTF-8
Codec ID : S_TEXT/UTF8
Codec ID/Info : UTF-8 Plain Text
Duration : 51 min 11 s
Bit rate : 52 b/s
Count of elements : 556
Stream size : 19.7 KiB (0%)
Title : Chinese Simplified
Language : Chinese
Default : No
Forced : No

Text #4
ID : 7
Format : UTF-8
Codec ID : S_TEXT/UTF8
Codec ID/Info : UTF-8 Plain Text
Duration : 51 min 11 s
Bit rate : 47 b/s
Count of elements : 563
Stream size : 17.8 KiB (0%)
Title : Chinese Traditional
Language : Chinese
Default : No
Forced : No

Text #5
ID : 8
Format : UTF-8
Codec ID : S_TEXT/UTF8
Codec ID/Info : UTF-8 Plain Text
Duration : 51 min 2 s
Bit rate : 41 b/s
Count of elements : 544
Stream size : 15.5 KiB (0%)
Title : Croatian
Language : Croatian
Default : No
Forced : No

Text #6
ID : 9
Format : UTF-8
Codec ID : S_TEXT/UTF8
Codec ID/Info : UTF-8 Plain Text
Duration : 51 min 2 s
Bit rate : 44 b/s
Count of elements : 550
Stream size : 16.8 KiB (0%)
Title : Czech
Language : Czech
Default : No
Forced : No

Text #7
ID : 10
Format : UTF-8
Codec ID : S_TEXT/UTF8
Codec ID/Info : UTF-8 Plain Text
Duration : 51 min 2 s
Bit rate : 44 b/s
Count of elements : 538
Stream size : 16.7 KiB (0%)
Title : Danish
Language : Danish
Default : No
Forced : No

Text #8
ID : 11
Format : UTF-8
Codec ID : S_TEXT/UTF8
Codec ID/Info : UTF-8 Plain Text
Duration : 51 min 2 s
Bit rate : 45 b/s
Count of elements : 509
Stream size : 16.9 KiB (0%)
Title : Dutch
Language : Dutch
Default : No
Forced : No

Text #9
ID : 12
Format : UTF-8
Codec ID : S_TEXT/UTF8
Codec ID/Info : UTF-8 Plain Text
Duration : 51 min 2 s
Bit rate : 44 b/s
Count of elements : 473
Stream size : 16.5 KiB (0%)
Title : Finnish
Language : Finnish
Default : No
Forced : No

Text #10
ID : 13
Format : UTF-8
Codec ID : S_TEXT/UTF8
Codec ID/Info : UTF-8 Plain Text
Duration : 50 min 59 s
Bit rate : 43 b/s
Count of elements : 487
Stream size : 16.2 KiB (0%)
Title : French
Language : French
Default : No
Forced : No

Text #11
ID : 14
Format : UTF-8
Codec ID : S_TEXT/UTF8
Codec ID/Info : UTF-8 Plain Text
Duration : 51 min 2 s
Bit rate : 44 b/s
Count of elements : 543
Stream size : 16.6 KiB (0%)
Title : German
Language : German
Default : No
Forced : No

Text #12
ID : 15
Format : UTF-8
Codec ID : S_TEXT/UTF8
Codec ID/Info : UTF-8 Plain Text
Duration : 51 min 11 s
Bit rate : 72 b/s
Count of elements : 548
Stream size : 27.0 KiB (0%)
Title : Greek
Language : Greek
Default : No
Forced : No

Text #13
ID : 16
Format : UTF-8
Codec ID : S_TEXT/UTF8
Codec ID/Info : UTF-8 Plain Text
Duration : 51 min 11 s
Bit rate : 75 b/s
Count of elements : 562
Stream size : 28.2 KiB (0%)
Title : Hebrew
Language : Hebrew
Default : No
Forced : No

Text #14
ID : 17
Format : UTF-8
Codec ID : S_TEXT/UTF8
Codec ID/Info : UTF-8 Plain Text
Duration : 51 min 11 s
Bit rate : 45 b/s
Count of elements : 547
Stream size : 16.9 KiB (0%)
Title : Hungarian
Language : Hungarian
Default : No
Forced : No

Text #15
ID : 18
Format : UTF-8
Codec ID : S_TEXT/UTF8
Codec ID/Info : UTF-8 Plain Text
Duration : 51 min 7 s
Bit rate : 44 b/s
Count of elements : 539
Stream size : 16.8 KiB (0%)
Title : Indonesian
Language : Indonesian
Default : No
Forced : No

Text #16
ID : 19
Format : UTF-8
Codec ID : S_TEXT/UTF8
Codec ID/Info : UTF-8 Plain Text
Duration : 50 min 59 s
Bit rate : 46 b/s
Count of elements : 539
Stream size : 17.4 KiB (0%)
Title : Italian
Language : Italian
Default : No
Forced : No

Text #17
ID : 20
Format : UTF-8
Codec ID : S_TEXT/UTF8
Codec ID/Info : UTF-8 Plain Text
Duration : 51 min 9 s
Bit rate : 45 b/s
Count of elements : 547
Stream size : 17.1 KiB (0%)
Title : Japanese
Language : Japanese
Default : No
Forced : No

Text #18
ID : 21
Format : UTF-8
Codec ID : S_TEXT/UTF8
Codec ID/Info : UTF-8 Plain Text
Duration : 51 min 9 s
Bit rate : 59 b/s
Count of elements : 588
Stream size : 22.4 KiB (0%)
Title : Korean
Language : Korean
Default : No
Forced : No

Text #19
ID : 22
Format : UTF-8
Codec ID : S_TEXT/UTF8
Codec ID/Info : UTF-8 Plain Text
Duration : 51 min 2 s
Bit rate : 44 b/s
Count of elements : 550
Stream size : 16.6 KiB (0%)
Title : Malay
Language : Malay
Default : No
Forced : No

Text #20
ID : 23
Format : UTF-8
Codec ID : S_TEXT/UTF8
Codec ID/Info : UTF-8 Plain Text
Duration : 51 min 2 s
Bit rate : 41 b/s
Count of elements : 500
Stream size : 15.7 KiB (0%)
Title : Norwegian Bokmal
Language : Norwegian Bokmal
Default : No
Forced : No

Text #21
ID : 24
Format : UTF-8
Codec ID : S_TEXT/UTF8
Codec ID/Info : UTF-8 Plain Text
Duration : 51 min 7 s
Bit rate : 42 b/s
Count of elements : 550
Stream size : 15.9 KiB (0%)
Title : Polish
Language : Polish
Default : No
Forced : No

Text #22
ID : 25
Format : UTF-8
Codec ID : S_TEXT/UTF8
Codec ID/Info : UTF-8 Plain Text
Duration : 51 min 2 s
Bit rate : 43 b/s
Count of elements : 544
Stream size : 16.2 KiB (0%)
Title : Portuguese
Language : Portuguese
Default : No
Forced : No

Text #23
ID : 26
Format : UTF-8
Codec ID : S_TEXT/UTF8
Codec ID/Info : UTF-8 Plain Text
Duration : 51 min 4 s
Bit rate : 45 b/s
Count of elements : 555
Stream size : 16.9 KiB (0%)
Title : Brazilian Portuguese
Language : Portuguese
Default : No
Forced : No

Text #24
ID : 27
Format : UTF-8
Codec ID : S_TEXT/UTF8
Codec ID/Info : UTF-8 Plain Text
Duration : 51 min 2 s
Bit rate : 47 b/s
Count of elements : 536
Stream size : 17.9 KiB (0%)
Title : Romanian
Language : Romanian
Default : No
Forced : No

Text #25
ID : 28
Format : UTF-8
Codec ID : S_TEXT/UTF8
Codec ID/Info : UTF-8 Plain Text
Duration : 51 min 8 s
Bit rate : 70 b/s
Count of elements : 544
Stream size : 26.5 KiB (0%)
Title : Russian
Language : Russian
Default : No
Forced : No

Text #26
ID : 29
Format : UTF-8
Codec ID : S_TEXT/UTF8
Codec ID/Info : UTF-8 Plain Text
Duration : 51 min 2 s
Bit rate : 42 b/s
Count of elements : 574
Stream size : 15.9 KiB (0%)
Title : Spanish
Language : Spanish
Default : No
Forced : No

Text #27
ID : 30
Format : UTF-8
Codec ID : S_TEXT/UTF8
Codec ID/Info : UTF-8 Plain Text
Duration : 51 min 2 s
Bit rate : 44 b/s
Count of elements : 553
Stream size : 16.5 KiB (0%)
Title : European Spanish
Language : Spanish
Default : No
Forced : No

Text #28
ID : 31
Format : UTF-8
Codec ID : S_TEXT/UTF8
Codec ID/Info : UTF-8 Plain Text
Duration : 50 min 59 s
Bit rate : 44 b/s
Count of elements : 490
Stream size : 16.5 KiB (0%)
Title : Swedish
Language : Swedish
Default : No
Forced : No

Text #29
ID : 32
Format : UTF-8
Codec ID : S_TEXT/UTF8
Codec ID/Info : UTF-8 Plain Text
Duration : 51 min 11 s
Bit rate : 117 b/s
Count of elements : 567
Stream size : 44.0 KiB (0%)
Title : Thai
Language : Thai
Default : No
Forced : No

Text #30
ID : 33
Format : UTF-8
Codec ID : S_TEXT/UTF8
Codec ID/Info : UTF-8 Plain Text
Duration : 51 min 2 s
Bit rate : 46 b/s
Count of elements : 539
Stream size : 17.3 KiB (0%)
Title : Turkish
Language : Turkish
Default : No
Forced : No

Text #31
ID : 34
Format : UTF-8
Codec ID : S_TEXT/UTF8
Codec ID/Info : UTF-8 Plain Text
Duration : 51 min 11 s
Bit rate : 72 b/s
Count of elements : 552
Stream size : 27.4 KiB (0%)
Title : Ukrainian
Language : Ukrainian
Default : No
Forced : No

Text #32
ID : 35
Format : UTF-8
Codec ID : S_TEXT/UTF8
Codec ID/Info : UTF-8 Plain Text
Duration : 51 min 2 s
Bit rate : 61 b/s
Count of elements : 557
Stream size : 23.2 KiB (0%)
Title : Vietnamese
Language : Vietnamese
Default : No
Forced : No

Readme/Password

Password & My Message