Fast Download Mirrors

Lost in Space (2018-) • TVSeries | S03.1080p.NF.WEBRip.DDP5.1.Atmos.x264-AGLET [11.8GB]

Lost in Space (2018-)
Lost in Space Adventure, Drama, Family, Mystery, Sci-Fi | April 13, 2018 (United States) Summary: After crash-landing on an alien planet, the Robinson family fight against all odds to survive and escape, but they're surrounded by hidden dangers.
Countries: United StatesLanguages: English

After crash-landing on an alien planet, the Robinson family fights against all odds to survive and escape. But they’re surrounded by hidden dangers.

Mirrors: MirrorAce, MultiUp, Gdrive[GDTOT, Sharer, GAdrive]
Format: MKV
Credits: AGLET
Seasons-3 Complete

Download

https://mirrorace.org/m/1452u
https://mirrorace.org/m/1452x
https://mirrorace.org/m/1452y
https://mirrorace.org/m/1K2uU
https://mirrorace.org/m/1K2uV
https://mirrorace.org/m/1K2uX
https://mirrorace.org/m/1K2uY
https://mirrorace.org/m/1K2v2

https://multiup.org/4bb7c6e00a197c151b5507a202c855aa
https://multiup.org/9742f0744d39be1eee75fdd0af692ec8
https://multiup.org/78b28213bdf2845b73ad104765f5095e
https://multiup.org/7990ee4c6318dbe4a9c4211ca851cb70
https://multiup.org/19133b93729c0639db10fbfb142e408b
https://multiup.org/a0f0497b1b70c630d3f43f52b3624976
https://multiup.org/a0618d192ee0fad045f84ee77f7c8b2d
https://multiup.org/782cd55e65ff1f26e7516332c34c5ddc

Lost.in.Space.2018.S03E06.Final.Transmission.1080p.NF.WEB-DL.DDP5.1.Atmos.x264-AGLET.mkv - 1.24 GB
https://new.gdtot.top/file/1330484108

Lost.in.Space.2018.S03E01.Three.Little.Birds.1080p.NF.WEB-DL.DDP5.1.Atmos.x264-AGLET.mkv - 1.32 GB
https://new.gdtot.top/file/1413178458

Lost.in.Space.2018.S03E04.Nothing.Left.Behind.1080p.NF.WEB-DL.DDP5.1.Atmos.x264-AGLET.mkv - 994.34 MB
https://new.gdtot.top/file/1042640476

Lost.in.Space.2018.S03E07.Contingencies.on.Contingencies.1080p.NF.WEB-DL.DDP5.1.Atmos.x264-AGLET.mkv - 1.13 GB
https://new.gdtot.top/file/1210052204


Lost.in.Space.2018.S03E08.Trust.1080p.NF.WEB-DL.DDP5.1.Atmos.x264-AGLET.mkv - 2.56 GB
https://new.gdtot.top/file/2749010796

Lost.in.Space.2018.S03E02.Contact.1080p.NF.WEB-DL.DDP5.1.Atmos.x264-AGLET.mkv - 1.16 GB
https://new.gdtot.top/file/1245332373

Lost.in.Space.2018.S03E03.The.New.Guy.1080p.NF.WEB-DL.DDP5.1.Atmos.x264-AGLET.mkv - 2.14 GB
https://new.gdtot.top/file/2297141800

Lost.in.Space.2018.S03E05.Stuck.1080p.NF.WEB-DL.DDP5.1.Atmos.x264-AGLET.mkv - 1.35 GB
https://new.gdtot.top/file/1444345469

https://sharer.pw/file/hfpdlE4wNUFG
https://sharer.pw/file/u_hddvtJoD4v
https://sharer.pw/file/MQYsvIKHgVKL
https://sharer.pw/file/TzbikLVfXtwN

https://sharer.pw/file/TvN45_VfZpPL
https://sharer.pw/file/YsiERpD5Qf3A
https://sharer.pw/file/YhahAP34pflZ
https://sharer.pw/file/v9wVxeQOHLmv

https://gadrive.com/file/1330484108
https://gadrive.com/file/1413178458
https://gadrive.com/file/1042640476
https://gadrive.com/file/1210052204
https://gadrive.com/file/2749010796
https://gadrive.com/file/1245332373
https://gadrive.com/file/2297141800
https://gadrive.com/file/1444345469
Video
ID : 1
Format : AVC
Format/Info : Advanced Video Codec
Format profile : Main@L4
Format settings : CABAC / 3 Ref Frames
Format settings, CABAC : Yes
Format settings, Reference frames : 3 frames
Codec ID : V_MPEG4/ISO/AVC
Duration : 58 min 20 s
Bit rate mode : Variable
Bit rate : 5 510 kb/s
Nominal bit rate : 5 800 kb/s
Maximum bit rate : 8 700 kb/s
Width : 1 920 pixels
Height : 1 080 pixels
Display aspect ratio : 16:9
Frame rate mode : Constant
Frame rate : 23.976 (24000/1001) FPS
Color space : YUV
Chroma subsampling : 4:2:0
Bit depth : 8 bits
Scan type : Progressive
Bits/(Pixel*Frame) : 0.111
Stream size : 2.25 GiB (88%)
Writing library : x264 core 148 r2727 7d026e8
Encoding settings : cabac=1 / ref=3 / deblock=1:0:0 / analyse=0x1:0x111 / me=umh / subme=10 / psy=1 / psy_rd=1.00:0.00 / mixed_ref=1 / me_range=24 / chroma_me=1 / trellis=2 / 8x8dct=0 / cqm=0 / deadzone=21,11 / fast_pskip=1 / chroma_qp_offset=-2 / threads=8 / lookahead_threads=1 / sliced_threads=0 / nr=0 / decimate=1 / interlaced=0 / bluray_compat=0 / stitchable=1 / constrained_intra=0 / bframes=2 / b_pyramid=0 / b_adapt=2 / b_bias=0 / direct=3 / weightb=1 / open_gop=0 / weightp=2 / keyint=250 / keyint_min=23 / scenecut=0 / intra_refresh=0 / rc_lookahead=48 / rc=2pass / mbtree=1 / bitrate=5800 / ratetol=1.0 / qcomp=0.50 / qpmin=6 / qpmax=51 / qpstep=4 / cplxblur=20.0 / qblur=0.5 / vbv_maxrate=8700 / vbv_bufsize=11600 / nal_hrd=vbr / filler=0 / ip_ratio=1.40 / aq=1:1.00
Default : Yes
Forced : No

Audio
ID : 2
Format : E-AC-3 JOC
Format/Info : Enhanced AC-3 with Joint Object Coding
Commercial name : Dolby Digital Plus with Dolby Atmos
Codec ID : A_EAC3
Duration : 58 min 20 s
Bit rate mode : Constant
Bit rate : 768 kb/s
Channel(s) : 6 channels
Channel layout : L R C LFE Ls Rs
Sampling rate : 48.0 kHz
Frame rate : 31.250 FPS (1536 SPF)
Compression mode : Lossy
Stream size : 320 MiB (12%)
Language : English
Service kind : Complete Main
Default : Yes
Forced : No
Complexity index : 16
Number of dynamic objects : 15
Bed channel count : 1 channel
Bed channel configuration : LFE

Text #1
ID : 3
Format : UTF-8
Codec ID : S_TEXT/UTF8
Codec ID/Info : UTF-8 Plain Text
Duration : 54 min 4 s
Bit rate : 49 b/s
Count of elements : 597
Stream size : 19.6 KiB (0%)
Language : English
Default : No
Forced : No

Text #2
ID : 4
Format : UTF-8
Codec ID : S_TEXT/UTF8
Codec ID/Info : UTF-8 Plain Text
Duration : 54 min 30 s
Bit rate : 59 b/s
Count of elements : 792
Stream size : 23.7 KiB (0%)
Title : SDH
Language : English
Default : No
Forced : No

Text #3
ID : 5
Format : UTF-8
Codec ID : S_TEXT/UTF8
Codec ID/Info : UTF-8 Plain Text
Duration : 56 min 29 s
Bit rate : 76 b/s
Count of elements : 593
Stream size : 31.5 KiB (0%)
Language : Arabic
Default : No
Forced : No

Text #4
ID : 6
Format : UTF-8
Codec ID : S_TEXT/UTF8
Codec ID/Info : UTF-8 Plain Text
Duration : 56 min 30 s
Bit rate : 43 b/s
Count of elements : 587
Stream size : 17.9 KiB (0%)
Language : Czech
Default : No
Forced : No

Text #5
ID : 7
Format : UTF-8
Codec ID : S_TEXT/UTF8
Codec ID/Info : UTF-8 Plain Text
Duration : 56 min 29 s
Bit rate : 40 b/s
Count of elements : 570
Stream size : 16.7 KiB (0%)
Language : Danish
Default : No
Forced : No

Text #6
ID : 8
Format : UTF-8
Codec ID : S_TEXT/UTF8
Codec ID/Info : UTF-8 Plain Text
Duration : 56 min 29 s
Bit rate : 44 b/s
Count of elements : 571
Stream size : 18.3 KiB (0%)
Language : German
Default : No
Forced : No

Text #7
ID : 9
Format : UTF-8
Codec ID : S_TEXT/UTF8
Codec ID/Info : UTF-8 Plain Text
Duration : 56 min 29 s
Bit rate : 76 b/s
Count of elements : 591
Stream size : 31.8 KiB (0%)
Language : Greek
Default : No
Forced : No

Text #8
ID : 10
Format : UTF-8
Codec ID : S_TEXT/UTF8
Codec ID/Info : UTF-8 Plain Text
Duration : 56 min 28 s
Bit rate : 42 b/s
Count of elements : 570
Stream size : 17.6 KiB (0%)
Language : Spanish
Default : No
Forced : No

Text #9
ID : 11
Format : UTF-8
Codec ID : S_TEXT/UTF8
Codec ID/Info : UTF-8 Plain Text
Duration : 56 min 29 s
Bit rate : 42 b/s
Count of elements : 591
Stream size : 17.8 KiB (0%)
Title : European
Language : Spanish
Default : No
Forced : No

Text #10
ID : 12
Format : UTF-8
Codec ID : S_TEXT/UTF8
Codec ID/Info : UTF-8 Plain Text
Duration : 56 min 29 s
Bit rate : 42 b/s
Count of elements : 568
Stream size : 17.6 KiB (0%)
Language : Finnish
Default : No
Forced : No

Text #11
ID : 13
Format : UTF-8
Codec ID : S_TEXT/UTF8
Codec ID/Info : UTF-8 Plain Text
Duration : 56 min 29 s
Bit rate : 43 b/s
Count of elements : 552
Stream size : 17.9 KiB (0%)
Language : French
Default : No
Forced : No

Text #12
ID : 14
Format : UTF-8
Codec ID : S_TEXT/UTF8
Codec ID/Info : UTF-8 Plain Text
Duration : 56 min 38 s
Bit rate : 69 b/s
Count of elements : 621
Stream size : 28.7 KiB (0%)
Language : Hebrew
Default : No
Forced : No

Text #13
ID : 15
Format : UTF-8
Codec ID : S_TEXT/UTF8
Codec ID/Info : UTF-8 Plain Text
Duration : 56 min 34 s
Bit rate : 39 b/s
Count of elements : 597
Stream size : 16.4 KiB (0%)
Language : Croatian
Default : No
Forced : No

Text #14
ID : 16
Format : UTF-8
Codec ID : S_TEXT/UTF8
Codec ID/Info : UTF-8 Plain Text
Duration : 56 min 30 s
Bit rate : 46 b/s
Count of elements : 567
Stream size : 19.4 KiB (0%)
Language : Hungarian
Default : No
Forced : No

Text #15
ID : 17
Format : UTF-8
Codec ID : S_TEXT/UTF8
Codec ID/Info : UTF-8 Plain Text
Duration : 56 min 29 s
Bit rate : 44 b/s
Count of elements : 591
Stream size : 18.6 KiB (0%)
Language : Indonesian
Default : No
Forced : No

Text #16
ID : 18
Format : UTF-8
Codec ID : S_TEXT/UTF8
Codec ID/Info : UTF-8 Plain Text
Duration : 56 min 29 s
Bit rate : 49 b/s
Count of elements : 591
Stream size : 20.4 KiB (0%)
Language : Italian
Default : No
Forced : No

Text #17
ID : 19
Format : UTF-8
Codec ID : S_TEXT/UTF8
Codec ID/Info : UTF-8 Plain Text
Duration : 56 min 29 s
Bit rate : 37 b/s
Count of elements : 603
Stream size : 15.4 KiB (0%)
Language : Japanese
Default : No
Forced : No

Text #18
ID : 20
Format : UTF-8
Codec ID : S_TEXT/UTF8
Codec ID/Info : UTF-8 Plain Text
Duration : 56 min 29 s
Bit rate : 52 b/s
Count of elements : 596
Stream size : 21.9 KiB (0%)
Language : Korean
Default : No
Forced : No

Text #19
ID : 21
Format : UTF-8
Codec ID : S_TEXT/UTF8
Codec ID/Info : UTF-8 Plain Text
Duration : 56 min 29 s
Bit rate : 42 b/s
Count of elements : 592
Stream size : 17.6 KiB (0%)
Language : Malay
Default : No
Forced : No

Text #20
ID : 22
Format : UTF-8
Codec ID : S_TEXT/UTF8
Codec ID/Info : UTF-8 Plain Text
Duration : 56 min 28 s
Bit rate : 42 b/s
Count of elements : 578
Stream size : 17.5 KiB (0%)
Language : Norwegian Bokmal
Default : No
Forced : No

Text #21
ID : 23
Format : UTF-8
Codec ID : S_TEXT/UTF8
Codec ID/Info : UTF-8 Plain Text
Duration : 56 min 29 s
Bit rate : 42 b/s
Count of elements : 563
Stream size : 17.6 KiB (0%)
Language : Dutch
Default : No
Forced : No

Text #22
ID : 24
Format : UTF-8
Codec ID : S_TEXT/UTF8
Codec ID/Info : UTF-8 Plain Text
Duration : 56 min 29 s
Bit rate : 41 b/s
Count of elements : 595
Stream size : 17.2 KiB (0%)
Language : Polish
Default : No
Forced : No

Text #23
ID : 25
Format : UTF-8
Codec ID : S_TEXT/UTF8
Codec ID/Info : UTF-8 Plain Text
Duration : 56 min 29 s
Bit rate : 44 b/s
Count of elements : 590
Stream size : 18.4 KiB (0%)
Language : Portuguese
Default : No
Forced : No

Text #24
ID : 26
Format : UTF-8
Codec ID : S_TEXT/UTF8
Codec ID/Info : UTF-8 Plain Text
Duration : 56 min 29 s
Bit rate : 44 b/s
Count of elements : 569
Stream size : 18.2 KiB (0%)
Title : Brazilian
Language : Portuguese
Default : No
Forced : No

Text #25
ID : 27
Format : UTF-8
Codec ID : S_TEXT/UTF8
Codec ID/Info : UTF-8 Plain Text
Duration : 56 min 29 s
Bit rate : 44 b/s
Count of elements : 587
Stream size : 18.6 KiB (0%)
Language : Romanian
Default : No
Forced : No

Text #26
ID : 28
Format : UTF-8
Codec ID : S_TEXT/UTF8
Codec ID/Info : UTF-8 Plain Text
Duration : 56 min 30 s
Bit rate : 70 b/s
Count of elements : 596
Stream size : 29.3 KiB (0%)
Language : Russian
Default : No
Forced : No

Text #27
ID : 29
Format : UTF-8
Codec ID : S_TEXT/UTF8
Codec ID/Info : UTF-8 Plain Text
Duration : 56 min 29 s
Bit rate : 45 b/s
Count of elements : 497
Stream size : 18.9 KiB (0%)
Language : Swedish
Default : No
Forced : No

Text #28
ID : 30
Format : UTF-8
Codec ID : S_TEXT/UTF8
Codec ID/Info : UTF-8 Plain Text
Duration : 56 min 29 s
Bit rate : 111 b/s
Count of elements : 608
Stream size : 46.1 KiB (0%)
Language : Thai
Default : No
Forced : No

Text #29
ID : 31
Format : UTF-8
Codec ID : S_TEXT/UTF8
Codec ID/Info : UTF-8 Plain Text
Duration : 56 min 29 s
Bit rate : 43 b/s
Count of elements : 591
Stream size : 17.8 KiB (0%)
Language : Turkish
Default : No
Forced : No

Text #30
ID : 32
Format : UTF-8
Codec ID : S_TEXT/UTF8
Codec ID/Info : UTF-8 Plain Text
Duration : 56 min 29 s
Bit rate : 69 b/s
Count of elements : 581
Stream size : 28.6 KiB (0%)
Language : Ukrainian
Default : No
Forced : No

Text #31
ID : 33
Format : UTF-8
Codec ID : S_TEXT/UTF8
Codec ID/Info : UTF-8 Plain Text
Duration : 56 min 29 s
Bit rate : 69 b/s
Count of elements : 608
Stream size : 28.7 KiB (0%)
Language : Vietnamese
Default : No
Forced : No

Text #32
ID : 34
Format : UTF-8
Codec ID : S_TEXT/UTF8
Codec ID/Info : UTF-8 Plain Text
Duration : 56 min 29 s
Bit rate : 48 b/s
Count of elements : 595
Stream size : 20.0 KiB (0%)
Title : Simplified
Language : Chinese
Default : No
Forced : No

Text #33
ID : 35
Format : UTF-8
Codec ID : S_TEXT/UTF8
Codec ID/Info : UTF-8 Plain Text
Duration : 56 min 40 s
Bit rate : 46 b/s
Count of elements : 596
Stream size : 19.3 KiB (0%)
Title : Traditional
Language : Chinese
Default : No
Forced : No

Readme/Password

Password & My Message

Screenshots