Fast Download Mirrors

Lucy (2014) • Movie | BluRay.1080p.DTS-HD.MA.5.1.AVC.REMUX-FraMeSToR

Lucy Action, Sci-Fi, Thriller | July 25, 2014 (United States) Summary: A woman, accidentally caught in a dark deal, turns the tables on her captors and transforms into a merciless warrior evolved beyond human logic.
Countries: France, Germany, Taiwan, Canada, United States, United KingdomLanguages: English, Mandarin, French, Italian, German, Spanish, Korean

A woman, accidentally caught in a dark deal, turns the tables on her captors and transforms into a merciless warrior evolved beyond human logic.

Mirrors: GDrive [Gadrive, GDToT, Index, Sharer], MultiUp
Format: MKV
Credits: FraMeSToR

Download

General
Unique ID : 183511195523903515677664264350831327407 (0x8A0EF87D1B58F0C4A6B32C868295B8AF)
Complete name : Lucy.2014.BluRay.1080p.DTS-HD.MA.5.1.AVC.REMUX-FraMeSToR.mkv
Format : Matroska
Format version : Version 4
File size : 19.9 GiB
Duration : 1 h 29 min
Overall bit rate mode : Variable
Overall bit rate : 31.8 Mb/s
Movie name : Lucy
Encoded date : UTC 2014-11-22 01:44:08
Writing application : mkvmerge v7.3.0 ('Nouages') 64bit built on Oct 22 2014 18:53:34
Writing library : libebml v1.3.0 + libmatroska v1.4.1

Video
ID : 1
Format : AVC
Format/Info : Advanced Video Codec
Format profile : High@L4.1
Format settings : CABAC / 4 Ref Frames
Format settings, CABAC : Yes
Format settings, Reference frames : 4 frames
Codec ID : V_MPEG4/ISO/AVC
Duration : 1 h 29 min
Bit rate mode : Variable
Bit rate : 27.1 Mb/s
Maximum bit rate : 32.5 Mb/s
Width : 1 920 pixels
Height : 1 080 pixels
Display aspect ratio : 16:9
Frame rate mode : Constant
Frame rate : 23.976 (24000/1001) FPS
Color space : YUV
Chroma subsampling : 4:2:0
Bit depth : 8 bits
Scan type : Progressive
Bits/(Pixel*Frame) : 0.544
Stream size : 16.9 GiB (85%)
Title : MPEG-4 AVC Video 28031 kbps 1080p / 23,976 fps / 16:9 / High Profile 4.1
Language : English
Default : Yes
Forced : No

Audio
ID : 2
Format : DTS XLL
Format/Info : Digital Theater Systems
Commercial name : DTS-HD Master Audio
Codec ID : A_DTS
Duration : 1 h 29 min
Bit rate mode : Variable
Bit rate : 4 284 kb/s
Channel(s) : 6 channels
Channel layout : C L R Ls Rs LFE
Sampling rate : 48.0 kHz
Frame rate : 93.750 FPS (512 SPF)
Bit depth : 24 bits
Compression mode : Lossless
Stream size : 2.67 GiB (13%)
Title : DTS-HD Master Audio English 4284 kbps 5.1 / 48 kHz / 4284 kbps
Language : English
Default : Yes
Forced : No

Text #1
ID : 3
Format : PGS
Codec ID : S_HDMV/PGS
Codec ID/Info : Picture based subtitle format used on BDs/HD-DVDs
Duration : 1 h 20 min
Bit rate : 33.3 kb/s
Count of elements : 2027
Stream size : 19.2 MiB (0%)
Language : English
Default : No
Forced : No

Text #2
ID : 4
Format : PGS
Codec ID : S_HDMV/PGS
Codec ID/Info : Picture based subtitle format used on BDs/HD-DVDs
Duration : 1 h 27 min
Bit rate : 21.1 kb/s
Count of elements : 1578
Stream size : 13.2 MiB (0%)
Language : Portuguese
Default : No
Forced : No

Text #3
ID : 5
Format : PGS
Codec ID : S_HDMV/PGS
Codec ID/Info : Picture based subtitle format used on BDs/HD-DVDs
Duration : 1 h 27 min
Bit rate : 21.9 kb/s
Count of elements : 1321
Stream size : 13.7 MiB (0%)
Language : Czech
Default : No
Forced : No

Text #4
ID : 6
Format : PGS
Codec ID : S_HDMV/PGS
Codec ID/Info : Picture based subtitle format used on BDs/HD-DVDs
Duration : 1 h 27 min
Bit rate : 23.3 kb/s
Count of elements : 1540
Stream size : 14.6 MiB (0%)
Language : Hungarian
Default : No
Forced : No

Text #5
ID : 7
Format : PGS
Codec ID : S_HDMV/PGS
Codec ID/Info : Picture based subtitle format used on BDs/HD-DVDs
Duration : 1 h 20 min
Bit rate : 25.0 kb/s
Count of elements : 1548
Stream size : 14.4 MiB (0%)
Language : Spanish
Default : No
Forced : No

Text #6
ID : 8
Format : PGS
Codec ID : S_HDMV/PGS
Codec ID/Info : Picture based subtitle format used on BDs/HD-DVDs
Duration : 1 h 27 min
Bit rate : 21.8 kb/s
Count of elements : 1402
Stream size : 13.6 MiB (0%)
Language : Polish
Default : No
Forced : No

Text #7
ID : 9
Format : PGS
Codec ID : S_HDMV/PGS
Codec ID/Info : Picture based subtitle format used on BDs/HD-DVDs
Duration : 1 h 27 min
Bit rate : 23.7 kb/s
Count of elements : 1556
Stream size : 14.9 MiB (0%)
Language : Russian
Default : No
Forced : No

Text #8
ID : 10
Format : PGS
Codec ID : S_HDMV/PGS
Codec ID/Info : Picture based subtitle format used on BDs/HD-DVDs
Duration : 1 h 27 min
Bit rate : 18.8 kb/s
Count of elements : 1602
Stream size : 11.8 MiB (0%)
Language : Thai
Default : No
Forced : No

Text #9
ID : 11
Format : PGS
Codec ID : S_HDMV/PGS
Codec ID/Info : Picture based subtitle format used on BDs/HD-DVDs
Duration : 1 h 27 min
Bit rate : 25.3 kb/s
Count of elements : 1582
Stream size : 15.9 MiB (0%)
Language : Turkish
Default : No
Forced : No

Text #10
ID : 12
Format : PGS
Codec ID : S_HDMV/PGS
Codec ID/Info : Picture based subtitle format used on BDs/HD-DVDs
Duration : 1 h 27 min
Bit rate : 21.5 kb/s
Count of elements : 1237
Stream size : 13.5 MiB (0%)
Language : Bulgarian
Default : No
Forced : No

Text #11
ID : 13
Format : PGS
Codec ID : S_HDMV/PGS
Codec ID/Info : Picture based subtitle format used on BDs/HD-DVDs
Duration : 1 h 27 min
Bit rate : 24.6 kb/s
Count of elements : 1599
Stream size : 15.4 MiB (0%)
Language : Croatian
Default : No
Forced : No

Text #12
ID : 14
Format : PGS
Codec ID : S_HDMV/PGS
Codec ID/Info : Picture based subtitle format used on BDs/HD-DVDs
Duration : 1 h 27 min
Bit rate : 26.7 kb/s
Count of elements : 1584
Stream size : 16.7 MiB (0%)
Language : Greek
Default : No
Forced : No

Text #13
ID : 15
Format : PGS
Codec ID : S_HDMV/PGS
Codec ID/Info : Picture based subtitle format used on BDs/HD-DVDs
Duration : 1 h 27 min
Bit rate : 16.5 kb/s
Count of elements : 1606
Stream size : 10.4 MiB (0%)
Language : Hebrew
Default : No
Forced : No

Text #14
ID : 16
Format : PGS
Codec ID : S_HDMV/PGS
Codec ID/Info : Picture based subtitle format used on BDs/HD-DVDs
Duration : 1 h 27 min
Bit rate : 14.5 kb/s
Count of elements : 1516
Stream size : 9.11 MiB (0%)
Language : Korean
Default : No
Forced : No

Text #15
ID : 17
Format : PGS
Codec ID : S_HDMV/PGS
Codec ID/Info : Picture based subtitle format used on BDs/HD-DVDs
Duration : 1 h 27 min
Bit rate : 21.9 kb/s
Count of elements : 1556
Stream size : 13.7 MiB (0%)
Language : Romanian
Default : No
Forced : No

Text #16
ID : 18
Format : PGS
Codec ID : S_HDMV/PGS
Codec ID/Info : Picture based subtitle format used on BDs/HD-DVDs
Duration : 1 h 27 min
Bit rate : 18.7 kb/s
Count of elements : 1618
Stream size : 11.7 MiB (0%)
Language : Chinese
Default : No
Forced : No

Text #17
ID : 19
Format : PGS
Codec ID : S_HDMV/PGS
Codec ID/Info : Picture based subtitle format used on BDs/HD-DVDs
Duration : 1 h 27 min
Bit rate : 24.9 kb/s
Count of elements : 1605
Stream size : 15.6 MiB (0%)
Language : Indonesian
Default : No
Forced : No

Text #18
ID : 20
Format : PGS
Codec ID : S_HDMV/PGS
Codec ID/Info : Picture based subtitle format used on BDs/HD-DVDs
Duration : 1 h 27 min
Bit rate : 20.2 kb/s
Count of elements : 1651
Stream size : 12.6 MiB (0%)
Language : Estonian
Default : No
Forced : No

Text #19
ID : 21
Format : PGS
Codec ID : S_HDMV/PGS
Codec ID/Info : Picture based subtitle format used on BDs/HD-DVDs
Duration : 1 h 27 min
Bit rate : 19.5 kb/s
Count of elements : 1601
Stream size : 12.2 MiB (0%)
Language : Latvian
Default : No
Forced : No

Text #20
ID : 22
Format : PGS
Codec ID : S_HDMV/PGS
Codec ID/Info : Picture based subtitle format used on BDs/HD-DVDs
Duration : 1 h 27 min
Bit rate : 24.1 kb/s
Count of elements : 1594
Stream size : 15.2 MiB (0%)
Language : Lithuanian
Default : No
Forced : No

Text #21
ID : 23
Format : PGS
Codec ID : S_HDMV/PGS
Codec ID/Info : Picture based subtitle format used on BDs/HD-DVDs
Duration : 1 h 27 min
Bit rate : 18.4 kb/s
Count of elements : 1535
Stream size : 11.5 MiB (0%)
Language : Slovenian
Default : No
Forced : No

Text #22
ID : 24
Format : PGS
Codec ID : S_HDMV/PGS
Codec ID/Info : Picture based subtitle format used on BDs/HD-DVDs
Duration : 1 h 27 min
Bit rate : 24.2 kb/s
Count of elements : 1562
Stream size : 15.2 MiB (0%)
Language : Ukrainian
Default : No
Forced : No

Text #23
ID : 25
Format : PGS
Codec ID : S_HDMV/PGS
Codec ID/Info : Picture based subtitle format used on BDs/HD-DVDs
Duration : 50 min 6 s
Bit rate : 1 977 b/s
Count of elements : 118
Stream size : 726 KiB (0%)
Language : English
Default : No
Forced : No

Text #24
ID : 26
Format : PGS
Codec ID : S_HDMV/PGS
Codec ID/Info : Picture based subtitle format used on BDs/HD-DVDs
Duration : 58 min 24 s
Bit rate : 2 170 b/s
Count of elements : 130
Stream size : 929 KiB (0%)
Language : Portuguese
Default : No
Forced : No

Text #25
ID : 27
Format : PGS
Codec ID : S_HDMV/PGS
Codec ID/Info : Picture based subtitle format used on BDs/HD-DVDs
Duration : 58 min 24 s
Bit rate : 2 200 b/s
Count of elements : 130
Stream size : 941 KiB (0%)
Language : Czech
Default : No
Forced : No

Text #26
ID : 28
Format : PGS
Codec ID : S_HDMV/PGS
Codec ID/Info : Picture based subtitle format used on BDs/HD-DVDs
Duration : 58 min 24 s
Bit rate : 2 092 b/s
Count of elements : 122
Stream size : 895 KiB (0%)
Language : Hungarian
Default : No
Forced : No

Text #27
ID : 29
Format : PGS
Codec ID : S_HDMV/PGS
Codec ID/Info : Picture based subtitle format used on BDs/HD-DVDs
Duration : 50 min 6 s
Bit rate : 2 578 b/s
Count of elements : 120
Stream size : 946 KiB (0%)
Language : Spanish
Default : No
Forced : No

Text #28
ID : 30
Format : PGS
Codec ID : S_HDMV/PGS
Codec ID/Info : Picture based subtitle format used on BDs/HD-DVDs
Duration : 1 h 26 min
Bit rate : 1 654 b/s
Count of elements : 136
Stream size : 1.02 MiB (0%)
Language : Russian
Default : No
Forced : No

Text #29
ID : 31
Format : PGS
Codec ID : S_HDMV/PGS
Codec ID/Info : Picture based subtitle format used on BDs/HD-DVDs
Duration : 1 h 27 min
Bit rate : 1 298 b/s
Count of elements : 130
Stream size : 836 KiB (0%)
Language : Thai
Default : No
Forced : No

Text #30
ID : 32
Format : PGS
Codec ID : S_HDMV/PGS
Codec ID/Info : Picture based subtitle format used on BDs/HD-DVDs
Duration : 58 min 24 s
Bit rate : 2 244 b/s
Count of elements : 120
Stream size : 960 KiB (0%)
Language : Turkish
Default : No
Forced : No

Readme/Password

Password & My Message