Fast Download Mirrors

Madagascar: A Little Wild Holiday Goose Chase (2021) • TV Special | 1080p.PCOK.WEBRip.DDP5.1.x264-TEPES [1.2GB]

Madagascar: A Little Wild Holiday Goose Chase (2021)
Madagascar: A Little Wild Holiday Goose Chase Animation | November 26, 2021 (United States) Summary: Melman the Giraffe meets Hank, a goose who has been separated from his family and along with his friends, they embark on a wild goose chase around the city to reunite Hank with his merry flo... Read all
Countries: United StatesLanguages: English

Melman the Giraffe meets Hank, a goose who has been separated from his family and along with his friends, they embark on a wild goose chase around the city to reunite Hank with his merry flock.

Mirrors: MirrorAce, MultiUp, Gdrive[GDTOT, Sharer, GADrive]
Format: MKV
Credits: TEPES

Download

Video
ID : 1
Format : AVC
Format/Info : Advanced Video Codec
Format profile : High@L4
Format settings : CABAC / 4 Ref Frames
Format settings, CABAC : Yes
Format settings, Reference frames : 4 frames
Codec ID : V_MPEG4/ISO/AVC
Duration : 23 min 9 s
Bit rate : 7 449 kb/s
Width : 1 920 pixels
Height : 1 080 pixels
Display aspect ratio : 16:9
Frame rate mode : Constant
Frame rate : 23.976 (24000/1001) FPS
Color space : YUV
Chroma subsampling : 4:2:0
Bit depth : 8 bits
Scan type : Progressive
Bits/(Pixel*Frame) : 0.150
Stream size : 1.21 GiB (97%)
Default : Yes
Forced : No

Audio
ID : 2
Format : E-AC-3
Format/Info : Enhanced AC-3
Commercial name : Dolby Digital Plus
Codec ID : A_EAC3
Duration : 23 min 9 s
Bit rate mode : Constant
Bit rate : 192 kb/s
Channel(s) : 6 channels
Channel layout : L R C LFE Ls Rs
Sampling rate : 48.0 kHz
Frame rate : 31.250 FPS (1536 SPF)
Compression mode : Lossy
Stream size : 31.8 MiB (3%)
Language : English
Service kind : Complete Main
Default : Yes
Forced : No

Text #1
ID : 3
Format : UTF-8
Codec ID : S_TEXT/UTF8
Codec ID/Info : UTF-8 Plain Text
Duration : 22 min 26 s
Bit rate : 89 b/s
Count of elements : 423
Stream size : 14.7 KiB (0%)
Language : English
Default : No
Forced : No

Text #2
ID : 4
Format : UTF-8
Codec ID : S_TEXT/UTF8
Codec ID/Info : UTF-8 Plain Text
Duration : 23 min 4 s
Bit rate : 117 b/s
Count of elements : 525
Stream size : 19.9 KiB (0%)
Title : SDH
Language : English
Default : No
Forced : No

Readme/Password

Password & My Message

Screenshots